Торрент файл
скачать торрент магнет ссылка Добавлен: 07 янв 2012, 18:18
Размер: 5.46 ГБ
Сидеров: 1
Личеров: 4
Автор

СообщениеДобавлено: 07 янв 2012, 18:18 

Не в сети
Супермодератор
Аватара пользователя
Дата регистрации:
11 апр 2010, 18:10
Спасибо: 5801 / 7
Сообщения: 56779
Вне поля зрения / Out of Sight

Перевод: Профессиональный (многоголосый, закадровый)
Cубтитры: отсутствуют
Формат: DVD9, DVD Video, MPEG2, AC3
Страна: США
Режиссер: Стивен Содерберг
Жанр: Боевик, триллер, мелодрама, комедия, криминал
Продолжительность: 01:57:58
Год выпуска: 1998
В ролях: Джордж Клуни, Дженнифер Лопез, Джим Робинсон, Майк Мэлоун, Донна Френзель, Мэнни Суарез, Деннис Фарина, Кит Хадсон, Луис Гузман, Paul Soileau ...
Описание: Джек Фоули — самый удачливый грабитель в стране, ограбивший более двухсот банков. Однажды, сбежав из тюрьмы, он понимает, что должен украсть кое-что более ценное, чем деньги… сердце Карен Сиско. Она умна, красива, но, к сожалению, Карен еще и работник прокуратуры. Теперь предстоит рискнуть всем, чтобы понять, есть ли между ними нечто большее, нежели Закон…

Рейтинг на КиноПоиск:7.003[/field]
Рейтинг MPAA:R[/field]
Рейтинг на IMDB:7.1/10[/field][/field]

Видео: 720x576, (PAL 16:9), MPEG2, 25,000 кадр/сек, ~ 7500Кбит/сек
Аудио #1: Русский, 48,0 КГц, AC3, 2 канала(ов), ~448 Кбит/сек [Профессиональный (многоголосый, закадровый)]
Аудио #2: Английский, 48,0 КГц, AC3, 2 канала(ов), ~448 Кбит/сек [Оригинал]


По роману Элмора Леонарда.
Премии и награды:
1999 - ОСКАР
Номинирован в категориях:
1 - Лучший монтаж
Anne V. Coates
2 - Лучший сценарист (адаптация)
Скотт Фрэнк /Scott Frank/
1999 - MTV Movie Awards
Номинирован в категориях:
1 - Лучшее исполнение женской роли
2 - Лучший поцелуй

Полное имя: I:\Фильмы DVD\Ихние\Вне поля зрения DVD-9\VIDEO_TS\VTS_01_1.VOB
Формат: MPEG-PS
Размер файла: 1024 Мбайт
Продолжительность: 21 м.
Общий поток: 6554 Кбит/сек
Видео
Идентификатор: 224 (0xE0)
Формат: MPEG Video
Версия формата: Version 2
Профиль формата: Main@Main
Параметр BVOP формата: Да
Параметр матрицы формата: По умолчанию
Продолжительность: 21 м.
Вид битрейта: Переменный
Битрейт: 5527 Кбит/сек
Номинальный битрейт: 7500 Кбит/сек
Ширина: 720 пикс.
Высота: 576 пикс.
Соотношение сторон: 16:9
Частота кадров: 25,000 кадр/сек
Стандарт вещания: PAL
Цветовое пространство: YUV
Подвыборка цветности: 4:2:0
Битовая глубина: 8 бит
Тип развёртки: Чересстрочная
Порядок развёртки: Верхнее поле первое
Метод сжатия: С потерями
Бит/(Пиксели*Кадры): 0.533
Размер потока: 864 Мбайт (84%)
Аудио #1
Идентификатор: 128 (0x80)
Формат: AC-3
Формат/Информация: Audio Coding 3
Расширение режима: CM (complete main)
Продолжительность: 21 м.
Вид битрейта: Постоянный
Битрейт: 448 Кбит/сек
Канал(ы): 2 канала(ов)
Расположение каналов: Front: L R
Частота: 48,0 КГц
Битовая глубина: 16 бит
Метод сжатия: С потерями
Размер потока: 70,0 Мбайт (7%)
Аудио #2
Идентификатор: 129 (0x81)
Формат: AC-3
Формат/Информация: Audio Coding 3
Расширение режима: CM (complete main)
Продолжительность: 2 с. 688 мс.
Вид битрейта: Постоянный
Битрейт: 448 Кбит/сек
Канал(ы): 2 канала(ов)
Расположение каналов: Front: L R
Частота: 48,0 КГц
Битовая глубина: 16 бит
Метод сжатия: С потерями
Размер потока: 147 Кбайт (0%)
Меню






















Поделиться:




реклама партнёра


Вернуться к началу
 Профиль Отправить личное сообщение  
 
   Похожие торренты   Автор   Торрент   Размер 
В этой теме нет новых непрочитанных сообщений. Вне поля зрения / Out of Sight [триллер, мелодрама, комедия, криминал, 1998] BDRip-AVC, Mvo

salma3

156 | 4

1.45 ГБ

В этой теме нет новых непрочитанных сообщений. Дети кукурузы 5: Поля страха / Children of the Corn V: Fields of Terror [ужасы, триллер, 1998] BDRip 1080p, Mvo

salma3

10 | 7

8.19 ГБ

В этой теме нет новых непрочитанных сообщений. Большое дело / The Big Hit [боевик, триллер, комедия, криминал, 1998] Blu-ray EUR 1080p, Dub+Sub

salma3

20 | 17

19.17 ГБ

В этой теме нет новых непрочитанных сообщений. Lifeforce - Within Sight [1998, Melodic Rock,AOR, MP3]

PriZraK

0 | 1

129.58 МБ

В этой теме нет новых непрочитанных сообщений. Смертельная игра / Deadly Game [боевик, триллер, комедия, криминал, семейный, 1998] DVDRip, Mvo+Dvo [Рен ТВ]

salma3

1 | 3

1.47 ГБ

В этой теме нет новых непрочитанных сообщений. Больница Никербокер / The Knick [02x01-10 из 10] (Стивен Содерберг) [2015, драма, HDTVRip | Amedia]

Dracon

111 | 60

7.33 ГБ

В этой теме нет новых непрочитанных сообщений. Больница Никербокер / The Knick [02х01-09 из 10] (Стивен Содерберг) [2015, Драма, HDTVRip | NewStudio]

Dracon

12 | 5

6.04 ГБ


Начать новую тему Ответить на тему  [ 1 сообщение ] 




Для Мосгорсуда, Роскомнадзора и рекламодателей:: mosgorsud-torrent[собачка]yandex.ru