Торрент файл
скачать торрент магнет ссылка Добавлен: 07 янв 2012, 18:17
Размер: 6.69 ГБ
Сидеров: 0
Личеров: 3
Автор

СообщениеДобавлено: 07 янв 2012, 18:17 

Не в сети
Супермодератор
Аватара пользователя
Дата регистрации:
11 апр 2010, 18:10
Спасибо: 5960 / 7
Сообщения: 56765
Джонни Мнемоник / Johnny Mnemonic

Перевод: Профессиональный (многоголосый, закадровый)
Cубтитры:Русские, английские
Формат: DVD9, DVD Video, MPEG2, AC3
Страна: США, Канада
Режиссер: Роберт Лонго
Жанр: Фантастика, боевик
Продолжительность: 01:36:40
Год выпуска: 1995
В ролях: Киану Ривз, Дина Мейер, Айс-Ти, Такеши Китано, Деннис Акаяма, Дольф Лундгрен, Генри Роллинз, Барбара Зукова, Удо Кир, Трейси Туид
Описание: В насквозь кибернетизированном будущем самый ценный товар — информация, доставляемая курьерами в самом надежном месте — в их собственном мозгу. Для того, чтобы преуспеть в этом бизнесе, Джонни «стер» воспоминания детства и расширил память сверхсовременных компьютерных приспособлений. Но и этого оказалось мало для информации, которую он взялся доставить. Если ее вовремя не сгрузить, то Джонни погибнет. Ставки велики, и информацию из головы (можно и с головой, но без Джонни) желает получить вездесущая японская мафия, подключающая к столь тонкому делу проповедника…

Рейтинг на КиноПоиск:6.822[/field]
Рейтинг MPAA :R[/field]
Рейтинг на IMDB:5.1/10[/field][/field]

Видео: 720x480, ( NTSC 16:9), MPEG2 Video, 23,976 кадр/сек, ~ 8000 Кбит/сек, 0.965 Бит/(Пиксели*Кадры)
Аудио #1:Русский, 48,0 КГц, AC3, 6 канала(ов), ~448 Кбит/сек [Профессиональный (двухголосый, закадровый)]EA Cinema
Аудио #2:Русский, 48,0 КГц, AC3, 6 канала(ов), ~448 Кбит/сек [Профессиональный (многоголосый, закадровый)]
Аудио #3:Русский, 48,0 КГц, AC3, 6 канала(ов), ~384 Кбит/сек [Авторский]C.Визгунов
Аудио #4:Английский, 48,0 КГц, AC3, 6 канала(ов), ~448 Кбит/сек [Оригинал][/field]

Полное имя: H:\Фильмы DVD\Джонни-мнемоник DVD-9\VIDEO_TS\VTS_02_1.VOB
Формат: MPEG-PS
Размер файла: 1024 Мбайт
Продолжительность: 14 м.
Общий поток: 9906 Кбит/сек
Видео
Идентификатор: 224 (0xE0)
Формат: MPEG Video
Версия формата: Version 2
Профиль формата: Main@Main
Параметр BVOP формата: Да
Параметр матрицы формата: По умолчанию
Продолжительность: 14 м.
Вид битрейта: Постоянный
Битрейт: 8000 Кбит/сек
Ширина: 720 пикс.
Высота: 480 пикс.
Соотношение сторон: 16:9
Частота кадров: 23,976 кадр/сек
Стандарт вещания: NTSC
Цветовое пространство: YUV
Подвыборка цветности: 4:2:0
Битовая глубина: 8 бит
Тип развёртки: Прогрессивная
Порядок развёртки: 2:3 Pulldown
Метод сжатия: С потерями
Бит/(Пиксели*Кадры): 0.965
Размер потока: 825 Мбайт (81%)
Аудио #1
Идентификатор: 128 (0x80)
Формат: AC-3
Формат/Информация: Audio Coding 3
Расширение режима: CM (complete main)
Продолжительность: 14 м.
Вид битрейта: Постоянный
Битрейт: 448 Кбит/сек
Канал(ы): 6 канала(ов)
Расположение каналов: Front: L C R, Side: L R, LFE
Частота: 48,0 КГц
Битовая глубина: 16 бит
Метод сжатия: С потерями
Размер потока: 46,3 Мбайт (5%)
Аудио #2
Идентификатор: 129 (0x81)
Формат: AC-3
Формат/Информация: Audio Coding 3
Расширение режима: CM (complete main)
Продолжительность: 14 м.
Вид битрейта: Постоянный
Битрейт: 448 Кбит/сек
Канал(ы): 6 канала(ов)
Расположение каналов: Front: L C R, Side: L R, LFE
Частота: 48,0 КГц
Битовая глубина: 16 бит
Метод сжатия: С потерями
Размер потока: 46,3 Мбайт (5%)
Аудио #3
Идентификатор: 130 (0x82)
Формат: AC-3
Формат/Информация: Audio Coding 3
Расширение режима: CM (complete main)
Продолжительность: 14 м.
Вид битрейта: Постоянный
Битрейт: 384 Кбит/сек
Канал(ы): 6 канала(ов)
Расположение каналов: Front: L C R, Side: L R, LFE
Частота: 48,0 КГц
Битовая глубина: 16 бит
Метод сжатия: С потерями
Размер потока: 39,7 Мбайт (4%)
Аудио #4
Идентификатор: 131 (0x83)
Формат: AC-3
Формат/Информация: Audio Coding 3
Расширение режима: CM (complete main)
Продолжительность: 14 м.
Вид битрейта: Постоянный
Битрейт: 448 Кбит/сек
Канал(ы): 6 канала(ов)
Расположение каналов: Front: L C R, Side: L R, LFE
Частота: 48,0 КГц
Битовая глубина: 16 бит
Метод сжатия: С потерями
Размер потока: 46,3 Мбайт (5%)
Меню
























Поделиться:




реклама партнёра


Вернуться к началу
 Профиль Отправить личное сообщение  
 
   Похожие торренты   Автор   Торрент   Размер 
В этой теме нет новых непрочитанных сообщений. Джонни Мнемоник / Johnny Mnemonic [Фантастика, боевик, 1995] BDRemux 1080p, Avo

salma3

0 | 0

24.97 ГБ

В этой теме нет новых непрочитанных сообщений. Беги, Джонни / Bhaag Johnny [Боевик, триллер, 2015] DVDRip, Mvo [SDI Media]

salma3

39 | 8

1.37 ГБ

В этой теме нет новых непрочитанных сообщений. Джонни, будь хорошим / Johnny Be Good [Комедия, 1988] HDTVRip, Dvo

salma3

18 | 56

1.45 ГБ

В этой теме нет новых непрочитанных сообщений. Джонни-Зубочистка / Johnny Stecchino [комедия, 1991] BDRip 720p, Mvo

salma3

52 | 4

6.94 ГБ

В этой теме нет новых непрочитанных сообщений. Опасный Джонни / Johnny Dangerously [комедия, криминал, 1984] WEBRip, Mvo

salma3

63 | 12

1.45 ГБ

В этой теме нет новых непрочитанных сообщений. Плохие парни / Bad Boys [боевик, триллер, драма, 1995] DVD9, Mvo+Dub+Sub

salma3

18 | 6

4.91 ГБ

В этой теме нет новых непрочитанных сообщений. Киберджек / Cyberjack [Фантастика, боевик, 1995] DVDRip, Dvo

salma3

8 | 4

1.46 ГБ


Начать новую тему Ответить на тему  [ 1 сообщение ] 




Для Мосгорсуда, Роскомнадзора и рекламодателей:: mosgorsud-torrent[собачка]yandex.ru