Торрент файл
скачать торрент магнет ссылка Добавлен: 07 янв 2012, 18:17
Размер: 7.59 ГБ
Сидеров: 1
Личеров: 7
Автор

СообщениеДобавлено: 07 янв 2012, 18:17 

Не в сети
Супермодератор
Аватара пользователя
Дата регистрации:
11 апр 2010, 18:10
Спасибо: 5963 / 7
Сообщения: 56762
Биндюжник и Король

Перевод: Не требуется
Субтитры:Русские
Формат: DVD9, DVD Video, MPEG2, AC3
Страна: СССР
Режиссер: Владимир Алеников
Жанр: Мюзикл, драма, комедия
Продолжительность: 01:20:41
Год выпуска: 1990

В ролях: Армен Джигарханян, Зиновий Гердт, Раиса Недашковская, Ирина Розанова, Максим Леонидов, Андрей Ургант, Татьяна Васильева, Роман Карцев, Евгений Евстигнеев, Мария Иткина

Описание: Молдаванка — легендарный район дореволюционной Одессы, суматошно-беззаботный мир, до краев полный по — южному яркой жизнь. Здесь обитает пестрый неунывающий люд, а также гордость Молдаванки — обаятельный бандит Беня Крик по прозвищу Король, сын биндюжника Менделя Крика. Вся эта история начинается, когда Мендель решил оставить семью и уйти к молодой красавице Маруське, продав свою знаменитую на всю Одессу конюшню…

Рейтинг на КиноПоиск:7.087[/field]
Рейтинг на IMDB:5.8/10[/field][/field]

Видео: 720x576, ( PAL 4:3), MPEG2 Video, 25,000 кадр/сек, ~9 300 Кбит/сек, 0.643 Бит/(Пиксели*Кадры)
Аудио: Русский, 48,0 КГц, AC3, 6 канала(ов), ~384 Кбит/сек

Доп. информация: По произведениям Исаака Бабеля.


Полное имя: К:\Биндюжник и Король DVD-9\VIDEO_TS\VTS_04_1.VOB
Формат: MPEG-PS
Размер файла: 1024 Мбайт
Продолжительность: 19 м.
Общий поток: 7191 Кбит/сек
Видео
Идентификатор: 224 (0xE0)
Формат: MPEG Video
Версия формата: Version 2
Профиль формата: Main@Main
Параметр BVOP формата: Да
Параметр матрицы формата: По умолчанию
Продолжительность: 19 м.
Вид битрейта: Переменный
Битрейт: 6664 Кбит/сек
Номинальный битрейт: 9300 Кбит/сек
Ширина: 720 пикс.
Высота: 576 пикс.
Соотношение сторон: 4:3
Частота кадров: 25,000 кадр/сек
Стандарт вещания: PAL
Цветовое пространство: YUV
Подвыборка цветности: 4:2:0
Битовая глубина: 8 бит
Тип развёртки: Чересстрочная
Порядок развёртки: Нижнее поле первое
Метод сжатия: С потерями
Бит/(Пиксели*Кадры): 0.643
Размер потока: 949 Мбайт (93%)
Аудио
Идентификатор: 128 (0x80)
Формат: AC-3
Формат/Информация: Audio Coding 3
Расширение режима: CM (complete main)
Продолжительность: 19 м.
Вид битрейта: Постоянный
Битрейт: 384 Кбит/сек
Канал(ы): 6 канала(ов)
Расположение каналов: Front: L C R, Side: L R, LFE
Частота: 48,0 КГц
Битовая глубина: 16 бит
Метод сжатия: С потерями
Размер потока: 54,7 Мбайт (5%)
Меню


























Поделиться:




реклама партнёра


Вернуться к началу
 Профиль Отправить личное сообщение  
 
   Похожие торренты   Автор   Торрент   Размер 
В этой теме нет новых непрочитанных сообщений. Семья Джетсонов / Jetsons: The Movie [мультфильм, мюзикл, фантастика, комедия, семейный, 1990] BDRemux 1080p, Mvo

salma3

14 | 8

13.09 ГБ

В этой теме нет новых непрочитанных сообщений. Большой веселый мюзикл / The Big Gay Musical [Комедия, мюзикл, драма, мелодрама, музыка, 2009] BDRip 720p, Avo+Sub

salma3

20 | 5

3.82 ГБ

В этой теме нет новых непрочитанных сообщений. Аладдин и король разбойников / Aladdin and the King of Thieves [мультфильм, мюзикл, фэнтези, 1996] BDRemux 1080p, Dub

salma3

0 | 20

18.43 ГБ

В этой теме нет новых непрочитанных сообщений. Король бельгийцев / King of the Belgians [драма, комедия, 2016] WEB-DLRip, Mvo

salma3

310 | 74

1.37 ГБ

В этой теме нет новых непрочитанных сообщений. Король комедии / The King of Comedy [драма, комедия, 1982] BDRip 1080p, Mvo+Dvo+Avo+Sub

salma3

43 | 43

11.44 ГБ

В этой теме нет новых непрочитанных сообщений. Сказочная Русь. Президенты удачи (Владимир Зеленский) [2014, Мультсериал для взрослых, юмор, мюзикл, SATRip]

Nickolas3435

983 | 24

1.07 ГБ

В этой теме нет новых непрочитанных сообщений. Король-рыбак / The Fisher King [фэнтези, драма, комедия, 1991] BDRip 720p, Dub+Mvo+Dvo+Avo+Sub

salma3

118 | 37

7.81 ГБ


Начать новую тему Ответить на тему  [ 1 сообщение ] 




Для Мосгорсуда, Роскомнадзора и рекламодателей:: mosgorsud-torrent[собачка]yandex.ru