Торрент файл
скачать торрент магнет ссылка Добавлен: 07 янв 2012, 18:16
Размер: 7.69 ГБ
Сидеров: 9
Личеров: 5
Автор

СообщениеДобавлено: 07 янв 2012, 18:16 

Не в сети
Супермодератор
Аватара пользователя
Дата регистрации:
11 апр 2010, 18:10
Спасибо: 5801 / 7
Сообщения: 56779
За облаками / Al di la delle nuvole

Перевод: Профессиональный (многоголосый, закадровый)
Cубтитры:Русские
Формат: DVD9, DVD Video, MPEG2, AC3
Страна: Германия, Франция, Италия
Режиссер: Микеланджело Антониони, Вим Вендерс
Жанр: Драма, мелодрама
Продолжительность: 01:44:57
Год выпуска: 1995

В ролях: Фанни Ардан, Кьяра Казелли, Ирен Жакоб, Джон Малкович, Софи Марсо, Венсан Перес, Жан Рено, Ким Росси Стюарт, Инес Састре, Питер Уэллер

Описание: Встречи с незнакомцами, наблюдения, прогулки с фотоаппаратом по улицам французских и итальянских городов вдохновляют режиссера фильма на четыре рассказа о любви. В основе этих историй — желание, убийство, расставание и вера.

Рейтинг на КиноПоиск:7.412[/field]
Рейтинг MPAA :R[/field]
Рейтинг на IMDB:6.4/10[/field][/field]

Видео: 720x576, ( PAL 16:9), MPEG2 Video, 25,000 кадр/сек, ~ 9 000 Кбит/сек
Аудио #1:Русский, 48,0 КГц, AC3, 6 канала(ов), ~448 Кбит/сек [Профессиональный (многоголосый, закадровый)]
Аудио #2:Итальянский, 48,0 КГц, AC3, 6 канала(ов), ~448 Кбит/сек [Оригинал][/field]

Доп. информация: Релиз на DVD 12 февраля 2009, «Neoclassica»

Полное имя: H:\Фильмы DVD\За облаками DVD-9\VIDEO_TS\VTS_01_1.VOB
Формат: MPEG-PS
Размер файла: 1024 Мбайт
Продолжительность: 20 м.
Общий поток: 7017 Кбит/сек
Видео
Идентификатор: 224 (0xE0)
Формат: MPEG Video
Версия формата: Version 2
Профиль формата: Main@Main
Параметр BVOP формата: Да
Параметр матрицы формата: По умолчанию
Продолжительность: 20 м.
Вид битрейта: Переменный
Битрейт: 5982 Кбит/сек
Номинальный битрейт: 9000 Кбит/сек
Ширина: 720 пикс.
Высота: 576 пикс.
Соотношение сторон: 16:9
Частота кадров: 25,000 кадр/сек
Стандарт вещания: PAL
Цветовое пространство: YUV
Подвыборка цветности: 4:2:0
Битовая глубина: 8 бит
Тип развёртки: Чересстрочная
Порядок развёртки: Верхнее поле первое
Метод сжатия: С потерями
Бит/(Пиксели*Кадры): 0.577
Размер потока: 873 Мбайт (85%)
Аудио #1
Идентификатор: 128 (0x80)
Формат: AC-3
Формат/Информация: Audio Coding 3
Расширение режима: CM (complete main)
Продолжительность: 20 м.
Вид битрейта: Постоянный
Битрейт: 448 Кбит/сек
Канал(ы): 6 канала(ов)
Расположение каналов: Front: L C R, Side: L R, LFE
Частота: 48,0 КГц
Битовая глубина: 16 бит
Метод сжатия: С потерями
Размер потока: 65,3 Мбайт (6%)
Аудио #2
Идентификатор: 129 (0x81)
Формат: AC-3
Формат/Информация: Audio Coding 3
Расширение режима: CM (complete main)
Продолжительность: 20 м.
Вид битрейта: Постоянный
Битрейт: 448 Кбит/сек
Канал(ы): 6 канала(ов)
Расположение каналов: Front: L C R, Side: L R, LFE
Частота: 48,0 КГц
Битовая глубина: 16 бит
Метод сжатия: С потерями
Размер потока: 65,3 Мбайт (6%)
Текст
Идентификатор: 32 (0x20)
Формат: RLE
Формат/Информация: Run-length encoding
Задержка видео: 1 с. 960 мс.
Меню
























Поделиться:




реклама партнёра


Вернуться к началу
 Профиль Отправить личное сообщение  
 
   Похожие торренты   Автор   Торрент   Размер 
В этой теме нет новых непрочитанных сообщений. Под электрическими облаками (Алексей Герман мл.) [драма, 2015] WEB-DL 720p

Dracon

0 | 0

4.24 ГБ

В этой теме нет новых непрочитанных сообщений. Под электрическими облаками (Алексей Герман мл.) [драма, 2015] WEB-DLRip

Dracon

184 | 7

1.38 ГБ

В этой теме нет новых непрочитанных сообщений. Под электрическими облаками (Алексей Герман мл.) [драма, 2015] WEB-DLRip

Dracon

504 | 10

2.05 ГБ

В этой теме нет новых непрочитанных сообщений. Плохие парни / Bad Boys [боевик, триллер, драма, 1995] DVD9, Mvo+Dub+Sub

salma3

18 | 6

4.91 ГБ

В этой теме нет новых непрочитанных сообщений. Il Tempio Delle Clessidre - Alienatura [2013, Progressive Rock, MP3]

PriZraK

0 | 1

131.19 МБ

В этой теме нет новых непрочитанных сообщений. Дикая любовь / Mad Love [драма, мелодрама, 1995] WEB-DLRip, Avo

salma3

29 | 4

1.37 ГБ

В этой теме нет новых непрочитанных сообщений. Перед рассветом / Before Sunrise [драма, мелодрама, 1995] WEB-DL 720p, Mvo+Dvo+Avo+Sub

salma3

29 | 4

3.49 ГБ


Начать новую тему Ответить на тему  [ 1 сообщение ] 




Для Мосгорсуда, Роскомнадзора и рекламодателей:: mosgorsud-torrent[собачка]yandex.ru