Торрент файл
скачать торрент магнет ссылка Добавлен: 07 янв 2012, 18:16
Размер: 6.79 ГБ
Сидеров: 0
Личеров: 5
Автор

СообщениеДобавлено: 07 янв 2012, 18:16 

Не в сети
Супермодератор
Аватара пользователя
Дата регистрации:
11 апр 2010, 18:10
Спасибо: 5960 / 7
Сообщения: 56765
Гиперболоид инженера Гарина

Перевод: Не требуется
Субтитры: отсутствуют
Формат: DVD9, DVD Video, MPEG2, AC3
Страна: СССР
Режиссер: Александр Гинцбург
Жанр: Фантастика
Продолжительность: 01:31:00
Год выпуска: 1965

В ролях: Евгений Евстигнеев, Всеволод Сафоно,в Михаил Астангов, Наталья Климова, Владимир Дружников, Михаил Кузнецов, Юрий Саранцев, Николай Бубнов, Виктор Чекмарев, Павел Шпрингфельд

Описание: Талантливый изобретатель, создавший аппарат невиданной разрушительной силы, одержим идеей мирового господства. В своем маниакальном стремлении он совершает одно преступление за другим, не предполагая, сколь ужасными окажутся последствия для него самого…

Рейтинг на КиноПоиск:6.735[/field]
Рейтинг на IMDB:6.3/10[/field][/field]

Видео: 720x576, (PAL 4:3), MPEG2, 25,000 кадр/сек, ~ 8 000 Кбит/сек
Аудио #1:Русский, 48,0 КГц, AC3, 6 канала(ов), ~448 Кбит/сек
Аудио #2:Русский, 48,0 КГц, AC3, 1 канал, ~192 Кбит/сек (Интервью с оператором фильма)

Полное имя: К:\Гиперболоид инженера Гарина DVD-9\VIDEO_TS\VTS_03_1.VOB
Формат: MPEG-PS
Размер файла: 1024 Мбайт
Продолжительность: 17 м.
Общий поток: 8006 Кбит/сек
Видео
Идентификатор: 224 (0xE0)
Формат: MPEG Video
Версия формата: Version 2
Профиль формата: Main@Main
Параметр BVOP формата: Да
Параметр матрицы формата: По умолчанию
Продолжительность: 17 м.
Вид битрейта: Переменный
Битрейт: 7206 Кбит/сек
Номинальный битрейт: 8000 Кбит/сек
Ширина: 720 пикс.
Высота: 576 пикс.
Соотношение сторон: 4:3
Частота кадров: 25,000 кадр/сек
Стандарт вещания: PAL
Цветовое пространство: YUV
Подвыборка цветности: 4:2:0
Битовая глубина: 8 бит
Тип развёртки: Чересстрочная
Порядок развёртки: Верхнее поле первое
Метод сжатия: С потерями
Бит/(Пиксели*Кадры): 0.695
Размер потока: 922 Мбайт (90%)
Аудио #1
Идентификатор: 128 (0x80)
Формат: AC-3
Формат/Информация: Audio Coding 3
Расширение режима: CM (complete main)
Продолжительность: 17 м.
Вид битрейта: Постоянный
Битрейт: 448 Кбит/сек
Канал(ы): 6 канала(ов)
Расположение каналов: Front: L C R, Side: L R, LFE
Частота: 48,0 КГц
Битовая глубина: 16 бит
Метод сжатия: С потерями
Размер потока: 57,3 Мбайт (6%)
Аудио #2
Идентификатор: 129 (0x81)
Формат: AC-3
Формат/Информация: Audio Coding 3
Расширение режима: CM (complete main)
Продолжительность: 17 м.
Вид битрейта: Постоянный
Битрейт: 192 Кбит/сек
Канал(ы): 1 канал
Расположение каналов: Front: C
Частота: 48,0 КГц
Битовая глубина: 16 бит
Метод сжатия: С потерями
Размер потока: 24,6 Мбайт (2%)
Текст
Идентификатор: 33 (0x21)
Формат: RLE
Формат/Информация: Run-length encoding
Задержка видео: 160 мс.
Меню


























Поделиться:




реклама партнёра


Вернуться к началу
 Профиль Отправить личное сообщение  
 
   Похожие торренты   Автор   Торрент   Размер 
В этой теме нет новых непрочитанных сообщений. Муха 2 / The Fly II [ужасы, фантастика, 1989] DVD9, Mvo+Sub

salma3

3 | 2

4.66 ГБ

В этой теме нет новых непрочитанных сообщений. Муха / The Fly [ужасы, фантастика, драма, 1986] DVD9, Mvo+Sub

salma3

4 | 3

4.87 ГБ

В этой теме нет новых непрочитанных сообщений. Один выстрел / One Shot [Боевик, фантастика, 2014] DVD9, Avo

salma3

32 | 8

5.19 ГБ

В этой теме нет новых непрочитанных сообщений. Смертельные узы / Wedlock [Фантастика, боевик, триллер, 1991] DVD9, Dvo+Avo

salma3

7 | 7

6.75 ГБ

В этой теме нет новых непрочитанных сообщений. Кловерфилд, 10 / 10 Cloverfield Lane (Ужасы, фантастика, 2016) DVD9, dub [iTunes]

marya111

13 | 7

7.81 ГБ

В этой теме нет новых непрочитанных сообщений. Пассажиры / Passengers [Фантастика, драма, мелодрама, 2016] DVD9, Dub [Custom]

salma3

59 | 18

6.66 ГБ

В этой теме нет новых непрочитанных сообщений. Живое / Life [ужасы, фантастика, триллер, 2017] DVD9, Dub+Sub [Лицензия]

salma3

19 | 12

5.58 ГБ


Начать новую тему Ответить на тему  [ 1 сообщение ] 




Для Мосгорсуда, Роскомнадзора и рекламодателей:: mosgorsud-torrent[собачка]yandex.ru