Торрент файл
скачать торрент магнет ссылка Добавлен: 07 янв 2012, 18:14
Размер: 7.17 ГБ
Сидеров: 0
Личеров: 2
Автор

СообщениеДобавлено: 07 янв 2012, 18:14 

Не в сети
Супермодератор
Аватара пользователя
Дата регистрации:
11 апр 2010, 18:10
Спасибо: 5799 / 7
Сообщения: 56779
И как Икар / I... comme Icare

Перевод: Профессиональный (многоголосый, закадровый)
Cубтитры: отсутствуют
Формат: DVD9, DVD Video, MPEG2, AC3
Страна: Франция
Режиссер: Анри Вернёй
Жанр: Триллер, драма, криминал, детектив
Продолжительность: 02:03:06
Год выпуска: 1979

В ролях: Ив Монтан, Мишель Эчеверри, Пьер Вернье, Роже Планшон, Жак Дени, Жак Серей, Жан-Франсуа Гарро, Мишель Альбертини, Жорж Беллер, Ролан Бланш

Описание: Убит президент Жари, но комиссия по расследованию заключает, что это самоубийство. С такой версией не согласен прокурор Вольнэ. Он обнаруживает, что все основные свидетели убиты, более того, убит и сам стрелявший. Прокурор приходит к выводу, что убийство — часть некоего секретного плана под названием «И как Икар».

Рейтинг на КиноПоиск:7.690[/field]
Рейтинг на IMDB:8.1/10[/field][/field]

Видео: 720x576, ( PAL 16:9), MPEG2 Video, 25,000 кадр/сек, ~ 8000 Кбит/сек
Аудио #2:Русский, 48,0 КГц, AC3, 6 канала(ов), ~448 Кбит/сек [Профессиональный (многоголосый, закадровый)]
Аудио #3:Французский, 48,0 КГц, AC3, 2 канала(ов), ~192 Кбит/сек [Оригинал][/field]

Доп. информация: Релиз на DVD 25 июня 2009, «Настроение Video»

Полное имя: H:\Фильмы DVD\И как Икар DVD-9\VIDEO_TS\VTS_01_1.VOB
Формат: MPEG-PS
Размер файла: 1024 Мбайт
Продолжительность: 20 м.
Общий поток: 6823 Кбит/сек
Видео
Идентификатор: 224 (0xE0)
Формат: MPEG Video
Версия формата: Version 2
Профиль формата: Main@Main
Параметр BVOP формата: Да
Параметр матрицы формата: По умолчанию
Продолжительность: 20 м.
Вид битрейта: Переменный
Битрейт: 6047 Кбит/сек
Номинальный битрейт: 8000 Кбит/сек
Ширина: 720 пикс.
Высота: 576 пикс.
Соотношение сторон: 16:9
Частота кадров: 25,000 кадр/сек
Стандарт вещания: PAL
Цветовое пространство: YUV
Подвыборка цветности: 4:2:0
Битовая глубина: 8 бит
Тип развёртки: Чересстрочная
Порядок развёртки: Верхнее поле первое
Метод сжатия: С потерями
Бит/(Пиксели*Кадры): 0.583
Размер потока: 908 Мбайт (89%)
Аудио #1
Идентификатор: 128 (0x80)
Формат: AC-3
Формат/Информация: Audio Coding 3
Расширение режима: CM (complete main)
Продолжительность: 20 м.
Вид битрейта: Постоянный
Битрейт: 448 Кбит/сек
Канал(ы): 6 канала(ов)
Расположение каналов: Front: L C R, Side: L R, LFE
Частота: 48,0 КГц
Битовая глубина: 16 бит
Метод сжатия: С потерями
Задержка видео: -80 мс.
Размер потока: 67,2 Мбайт (7%)
Аудио #2
Идентификатор: 129 (0x81)
Формат: AC-3
Формат/Информация: Audio Coding 3
Расширение режима: CM (complete main)
Продолжительность: 20 м.
Вид битрейта: Постоянный
Битрейт: 192 Кбит/сек
Канал(ы): 2 канала(ов)
Расположение каналов: Front: L R
Частота: 48,0 КГц
Битовая глубина: 16 бит
Метод сжатия: С потерями
Задержка видео: -80 мс.
Размер потока: 28,8 Мбайт (3%)
Меню
























Поделиться:




реклама партнёра


Вернуться к началу
 Профиль Отправить личное сообщение  
 
   Похожие торренты   Автор   Торрент   Размер 
В этой теме нет новых непрочитанных сообщений. Воскрешение / Resurrection [ужасы, триллер, драма, криминал, детектив, 1999] DVD9, Dvo+Avo+Sub

salma3

16 | 3

5.34 ГБ

В этой теме нет новых непрочитанных сообщений. Кибер / Blackhat (Майкл Манн) [боевик, триллер, драма, криминал, детектив, 2015] DVD9, Dub+Sub [лицензия]

Dracon

0 | 0

6.83 ГБ

В этой теме нет новых непрочитанных сообщений. Целуя девушек / Kiss the Girls [триллер, драма, криминал, детектив, 1997] DVD9, 2Mvo+Dvo+2Avo+Sub

salma3

26 | 11

7.83 ГБ

В этой теме нет новых непрочитанных сообщений. Такая красотка как я / Une belle fille comme moi [драма, комедия, криминал, 1972] DVDRip, Mvo

salma3

16 | 2

1.4 ГБ

В этой теме нет новых непрочитанных сообщений. Сила одиночки / A Force of One [боевик, триллер, драма, криминал, 1979] BDRip, Avo

salma3

30 | 2

1.46 ГБ

В этой теме нет новых непрочитанных сообщений. Призвание / The Calling (Джейсон Стоун) [триллер, криминал, детектив, 2014] DVD9, Mvo+Sub [Лицензия]

Dracon

15 | 7

6.89 ГБ

В этой теме нет новых непрочитанных сообщений. ...И не краснеет / ...Comme elle respire [комедия, криминал, 1998] SATRip, Mvo

salma3

76 | 17

1.45 ГБ


Начать новую тему Ответить на тему  [ 1 сообщение ] 




Для Мосгорсуда, Роскомнадзора и рекламодателей:: mosgorsud-torrent[собачка]yandex.ru