Торрент файл
скачать торрент магнет ссылка Добавлен: 07 янв 2012, 18:12
Размер: 6.67 ГБ
Сидеров: 0
Личеров: 8
Автор

СообщениеДобавлено: 07 янв 2012, 18:12 

Не в сети
Супермодератор
Аватара пользователя
Дата регистрации:
11 апр 2010, 18:10
Спасибо: 5963 / 7
Сообщения: 56762
Интервью с вампиром / Interview with the Vampire: The Vampire Chronicles

Перевод: Профессиональный (полное дублирование)
Cубтитры: Английские, французские, испанские
Формат: DVD9, DVD Video, MPEG2, AC3
Страна: США
Режиссер: Нил Джордан
Жанр: Ужасы, драма
Продолжительность: 02:03:07
Год выпуска: 1994

В ролях: Брэд Питт, Том Круз, Кирстен Данст, Антонио Бандерас, Стивен Ри, Кристиан Слэйтер, Вирджиния МакКоллэм, Джон МакКоннелл, Майк Силиг, Беллина Логан

Роли дублировали: Валерий Сторожик, Владимир Вихров, Никита Прозоровский, Татьяна Канаева, Андрей Ташков

Описание: К падкому на сенсации журналисту приходит вампир, чтобы поведать историю своей жизни. Все началось в 1791 году, когда молодой плантатор Луи, потеряв жену и ребенка, захотел умереть, но «родился для мрака». Выслушав рассказ вампира, журналист пожелал стать таким же, как он…

Рейтинг на КиноПоиск:8.022[/field]
Рейтинг MPAA:R[/field]
Рейтинг на IMDB:7.5/10[/field][/field]

Видео: 720x480 ( NTSC 16:9), MPEG2 Video, 29,970 кадр/сек, ~ 4466 Кбит/сек
Аудио #1: Английский, 48,0 КГц, AC3, 6 канала(ов), ~448 Кбит/сек [Оригинал]
Аудио #2: Русский, 48,0 КГц, AC3, 6 канала(ов), ~384 Кбит/сек [Профессиональный (полное дублирование) ]
Аудио #3: Русский, 48,0 КГц, AC3, 2 канала(ов), ~192 Кбит/сек[Авторский (одноголосый) ( А.Гаврилов)]
Аудио #4: Русский, 48,0 КГц, DTS, 6 канала(ов), ~755 Кбит/сек[/field][Профессиональный (многоголосый, закадровый)]


Оскар, 1995 год
Номинации (2):
* Лучшие декорации
* Лучший оригинальный саундтрек
Золотой глобус, 1995 год
Номинации (2):
* Лучшая женская роль второго плана (Кирстен Данст)
* Лучший саундтрек
Премия канала «MTV», 1995 год
Победитель (3):
* Прорыв года (Кирстен Данст)
* Самый желанный мужчина (Брэд Питт)
* Лучшая мужская роль (Брэд Питт)
Номинации (5):
* Лучший экранный дуэт (Брэд Питт, Том Круз)
* Самый желанный мужчина (Кристиан Слэйтер)
* Самый желанный мужчина (Том Круз)
* Лучший злодей (Том Круз)
* Лучший фильм
Золотая малина, 1995 год
Победитель (1):
* Худшая экранная пара — «Брэд Питт и Том Круз»
Британская академия, 1995 год
Победитель (2):
* Лучшая работа оператора
* Лучшая работа художника-постановщика
Номинации (2):
* Лучшие костюмы
* Лучший грим/прически

Полное имя: D:\Интервью с вампиром DVD-9\VIDEO_TS\VTS_01_1.VOB
Формат: MPEG-PS
Размер файла: 1024 Мбайт
Продолжительность: 22 м.
Общий поток: 6371 Кбит/сек
Видео
Идентификатор: 224 (0xE0)
Формат: MPEG Video
Версия формата: Version 2
Профиль формата: Main@Main
Параметр BVOP формата: Да
Параметр матрицы формата: По умолчанию
Продолжительность: 22 м.
Вид битрейта: Переменный
Битрейт: 4466 Кбит/сек
Ширина: 720 пикс.
Высота: 480 пикс.
Соотношение сторон: 16:9
Частота кадров: 29,970 кадр/сек
Стандарт вещания: NTSC
Цветовое пространство: YUV
Подвыборка цветности: 4:2:0
Битовая глубина: 8 бит
Метод сжатия: С потерями
Бит/(Пиксели*Кадры): 0.431
Размер потока: 718 Мбайт (70%)
Аудио #1
Идентификатор: 128 (0x80)
Формат: AC-3
Формат/Информация: Audio Coding 3
Расширение режима: CM (complete main)
Продолжительность: 22 м.
Вид битрейта: Постоянный
Битрейт: 448 Кбит/сек
Канал(ы): 6 канала(ов)
Расположение каналов: Front: L C R, Side: L R, LFE
Частота: 48,0 КГц
Битовая глубина: 16 бит
Метод сжатия: С потерями
Задержка видео: -83 мс.
Размер потока: 72,0 Мбайт (7%)
Аудио #2
Идентификатор: 129 (0x81)
Формат: AC-3
Формат/Информация: Audio Coding 3
Расширение режима: CM (complete main)
Продолжительность: 22 м.
Вид битрейта: Постоянный
Битрейт: 384 Кбит/сек
Канал(ы): 6 канала(ов)
Расположение каналов: Front: L C R, Side: L R, LFE
Частота: 48,0 КГц
Битовая глубина: 16 бит
Метод сжатия: С потерями
Задержка видео: -83 мс.
Размер потока: 61,7 Мбайт (6%)
Аудио #3
Идентификатор: 130 (0x82)
Формат: AC-3
Формат/Информация: Audio Coding 3
Профиль формата: Dolby Digital
Расширение режима: CM (complete main)
Продолжительность: 22 м.
Вид битрейта: Постоянный
Битрейт: 192 Кбит/сек
Канал(ы): 2 канала(ов)
Расположение каналов: Front: L R
Частота: 48,0 КГц
Битовая глубина: 16 бит
Метод сжатия: С потерями
Задержка видео: -83 мс.
Размер потока: 30,9 Мбайт (3%)
Аудио #4
Идентификатор: 139 (0x8B)
Формат: DTS
Формат/Информация: Digital Theater Systems
Продолжительность: 22 м.
Вид битрейта: Постоянный
Битрейт: 755 Кбит/сек
Канал(ы): 6 канала(ов)
Расположение каналов: Front: L C R, Side: L R, LFE
Частота: 48,0 КГц
Битовая глубина: 24 бит
Метод сжатия: С потерями
Задержка видео: -83 мс.
Размер потока: 121 Мбайт (12%)
Текст #1
Идентификатор: 224 (0xE0)-DVD-2
Формат: EIA-608
Режим смешивания: DVD-Video
Режим смешивания, доп. информаци : Muxed in Video #1
Размер потока: 0,00 байт (0%)
Текст #2
Идентификатор: 32 (0x20)
Формат: RLE
Формат/Информация: Run-length encoding
Текст #3
Идентификатор: 33 (0x21)
Формат: RLE
Формат/Информация: Run-length encoding
Текст #4
Идентификатор: 34 (0x22)
Формат: RLE
Формат/Информация: Run-length encoding
Текст #5
Идентификатор: 35 (0x23)
Формат: RLE
Формат/Информация: Run-length encoding
Текст #6
Идентификатор: 36 (0x24)
Формат: RLE
Формат/Информация: Run-length encoding
Текст #7
Идентификатор: 37 (0x25)
Формат: RLE
Формат/Информация: Run-length encoding
Меню
























Поделиться:




реклама партнёра


Вернуться к началу
 Профиль Отправить личное сообщение  
 
   Похожие торренты   Автор   Торрент   Размер 
В этой теме нет новых непрочитанных сообщений. Интервью с вампиром / Interview with the Vampire: The Vampire Chronicles [ужасы, фэнтези, драма, 1994] BDRip 720p, Dub

salma3

8 | 4

8.4 ГБ

В этой теме нет новых непрочитанных сообщений. Интервью с вампиром / Interview with the Vampire: The Vampire Chronicles [Ужасы, фэнтези, экранизация, 1994] BDRemux 1080p, Dub

salma3

21 | 19

24.07 ГБ

В этой теме нет новых непрочитанных сообщений. Private Blockbusters 12: My Stepmother Is A Vampire / Моя Мачеха - Вампир (Alex Conte / Private) [2014 г., Feature, Anal, Vampire, 540p, WEB-DL] (Split Scenes)

salma3

17 | 5

1.41 ГБ

В этой теме нет новых непрочитанных сообщений. Сицилийский вампир / Sicilian Vampire [триллер, ужасы, драма, криминал, 2015] WEBRip, Mvo

salma3

161 | 69

1.37 ГБ

В этой теме нет новых непрочитанных сообщений. Дневники Вампира / The Vampire Diaries [S08] [Ужасы, фэнтези, триллер, драма, мелодрама, детектив, 2016] WEB-DLRip, Mvo [КПК] [LostFilm]

salma3

46 | 91

2.99 ГБ

В этой теме нет новых непрочитанных сообщений. Дневники Вампира / The Vampire Diaries [06x01-15] (Маркос Сига, Элизабет Аллен) [2014, Ужасы, фэнтези, драма, мелодрама, HDTVRip | ColdFilm]

Nickolas3435

224 | 529

6.27 ГБ

В этой теме нет новых непрочитанных сообщений. Дневники Вампира / The Vampire Diaries [06x01-12] (Маркос Сига, Элизабет Аллен) [2014, Ужасы, фэнтези, драма, мелодрама, HDTVRip | ColdFilm]

Nickolas3435

51 | 206

5.06 ГБ


Начать новую тему Ответить на тему  [ 1 сообщение ] 




Для Мосгорсуда, Роскомнадзора и рекламодателей:: mosgorsud-torrent[собачка]yandex.ru