COVID-19 - Последняя информация о коронавирусе на сайте Минздрава




Торрент файл
скачать торрент магнет ссылка Добавлен: 07 янв 2012, 18:12
Размер: 5.9 ГБ
Сидеров: 0
Личеров: 5
Автор

СообщениеДобавлено: 07 янв 2012, 18:12 

Не в сети
Супермодератор
Аватара пользователя
Дата регистрации:
11 апр 2010, 18:10
Спасибо: 6059 / 7
Сообщения: 56660
Интердевочка

Перевод: Не требуется
Субтитры: отсутствуют
Формат: DVD9, DVD Video, MPEG2, AC3
Страна: Швеция, СССР
Режиссер: Петр Тодоровский
Жанр: Драма, мелодрама
Продолжительность: 01:25:59
Год выпуска: 1989

В ролях: Елена Яковлева, Томас Лаустиола, Анастасия Немоляева, Ирина Розанова, Валерий Хромушкин, Всеволод Шиловский, Лариса Малеванная, Любовь Полищук, Ингеборга Дапкунайте, Мартиньш Вилсонс

Описание: Валютная проститутка мечтает вырваться из замкнутого круга — выйти замуж за иностранца, уехать заграницу и стать респектабельной дамой. Но получив все, о чем мечтала, понимает, что не хватает самого главного — может быть, счастья…

Рейтинг на КиноПоиск:7.255[/field]
Рейтинг на IMDB:6.9/10[/field][/field]

Видео: 720x576 ( PAL 4:3), MPEG2 Video, 25,000 кадр/сек, ~ 5005 Кбит/сек
Аудио#1:Русский, 48,0 КГц, AC3, 6 канала(ов), ~448 Кбит/сек
Аудио#2: Русский, 48,0 КГц, AC3, 1 канал, ~ 224Кбит/сек

Доп. информация: Полная реставрация звука и изображения "Крупный план"

Полное имя: I:\Фильмы DVD\Наши\Интердевочка (DVD-9)\VIDEO_TS\VTS_02_1.VOB
Формат: MPEG-PS
Размер файла: 1024 Мбайт
Продолжительность: 24 м.
Общий поток: 5792 Кбит/сек
Видео
Идентификатор: 224 (0xE0)
Формат: MPEG Video
Версия формата: Version 2
Профиль формата: Main@Main
Параметр BVOP формата: Да
Параметр матрицы формата: По умолчанию
Продолжительность: 24 м.
Вид битрейта: Постоянный
Битрейт: 5005 Кбит/сек
Ширина: 720 пикс.
Высота: 576 пикс.
Соотношение сторон: 4:3
Частота кадров: 25,000 кадр/сек
Стандарт вещания: PAL
Цветовое пространство: YUV
Подвыборка цветности: 4:2:0
Битовая глубина: 8 бит
Тип развёртки: Чересстрочная
Порядок развёртки: Верхнее поле первое
Метод сжатия: С потерями
Бит/(Пиксели*Кадры): 0.483
Размер потока: 885 Мбайт (86%)
Аудио #1
Идентификатор: 128 (0x80)
Формат: AC-3
Формат/Информация: Audio Coding 3
Расширение режима: CM (complete main)
Продолжительность: 24 м.
Вид битрейта: Постоянный
Битрейт: 448 Кбит/сек
Канал(ы): 6 канала(ов)
Расположение каналов: Front: L C R, Side: L R, LFE
Частота: 48,0 КГц
Битовая глубина: 16 бит
Метод сжатия: С потерями
Задержка видео: 92 мс.
Размер потока: 79,2 Мбайт (8%)
Аудио #2
Идентификатор: 129 (0x81)
Формат: AC-3
Формат/Информация: Audio Coding 3
Расширение режима: CM (complete main)
Продолжительность: 24 м.
Вид битрейта: Постоянный
Битрейт: 224 Кбит/сек
Канал(ы): 1 канал
Расположение каналов: Front: C
Частота: 48,0 КГц
Битовая глубина: 16 бит
Метод сжатия: С потерями
Задержка видео: 90 мс.
Размер потока: 39,6 Мбайт (4%)
Меню






















Поделиться:



Скачать книги и аудио книги через торрент


Вернуться к началу
 Профиль Отправить личное сообщение  
 
   Похожие торренты   Автор   Торрент   Размер 
В этой теме нет новых непрочитанных сообщений. Двое / Deux [драма, мелодрама, 1989] DVDRip, Mvo

salma3

16 | 14

2.01 ГБ

В этой теме нет новых непрочитанных сообщений. Пятнадцатилетняя / La fille de 15 ans [драма, мелодрама, 1989] DVDRip, Avo

salma3

0 | 0

1.46 ГБ

В этой теме нет новых непрочитанных сообщений. В стране / In Country [Драма, мелодрама, военный, 1989] WEB-DL 1080p, Dvo

salma3

0 | 0

10.79 ГБ

В этой теме нет новых непрочитанных сообщений. Белая свадьба / Noce blanche [драма, мелодрама, 1989] DVDRip, Dvo

salma3

0 | 1

785.57 МБ

В этой теме нет новых непрочитанных сообщений. Скажи что-нибудь / Say Anything... [драма, мелодрама, комедия, 1989] BDRemux 1080р, Mvo

salma3

1 | 7

20.96 ГБ

В этой теме нет новых непрочитанных сообщений. Белая свадьба / Noce blanche [драма, мелодрама, 1989] HDTV 1080i, Dvo

salma3

9 | 1

3.95 ГБ

В этой теме нет новых непрочитанных сообщений. Свяжи меня / Átame! [драма, мелодрама, комедия, 1989] BDRip 720p, Dvo

salma3

26 | 9

9.52 ГБ


Начать новую тему Ответить на тему  [ 1 сообщение ] 




Для Мосгорсуда, Роскомнадзора и рекламодателей:: rstracker[собака]yandex.ru
cron