Торрент файл
скачать торрент магнет ссылка Добавлен: 07 янв 2012, 18:11
Размер: 7.64 ГБ
Сидеров: 0
Личеров: 5
Автор

СообщениеДобавлено: 07 янв 2012, 18:11 

Не в сети
Супермодератор
Аватара пользователя
Дата регистрации:
11 апр 2010, 18:10
Спасибо: 5799 / 7
Сообщения: 56779
Стая (8 серий из 8 )


Перевод: Не требуется
Субтитры:Отсутствуют
Формат: DVD9, DVD Video, MPEG2, AC3
Страна: Россия
Режиссер: Станислав Мареев
Жанр: боевик
Продолжительность: 8 х 00:44
Год выпуска: 2002

В ролях: Алексей Серебряков, Ольга Сидорова, Самвел Мужикян, Александр Песков, Алексей Огурцов, Сергей Угрюмов, Наталья Тетенова, Алексей Панин, Андрей Зибров, Александр Пятков....

Описание: Фильм основан на романе А. Бушкова «Волчья стая».
Действие происходит в Красноярском крае, в городе Шантарске, в наши дни. Главные герои – бизнесмен Вадим, его жена Ника вместе с партнером Вадима Эмилем отдыхают на лужайке перед домом. Ника находит в газете странное объявление – в качестве развлечения для состоятельных господ и дам предлагается экстрим-тур провести пару недель в самом настоящем концлагере – с бараками, трудовыми работами, надзирателями, допросами, шмонами и другими атрибутами настоящего ГУЛАГа. Сотрудники турфирмы обещают полное погружение в реальность 1938 года.
К ужасу "отдыхающих", через несколько дней выясняется, что лагерь вовсе не развлекательный: бандитская организация собрала компромат на каждого из "заключенных" и начинает шантажировать "постояльцев". "Зэки", обеспечившие перевод затребованной суммы, получают возможность покинуть территорию лагеря. Остальные будут содержаться в нечеловеческих условиях, пока не образумятся. Подозревая, что за воротами лагеря освобожденных ждет вовсе не возвращение в мирную жизнь, а верная смерть, несколько компаньонов организовывают побег. По их следам бандиты выпускают погоню и организовывают встречное прочесывание леса силами армии. С боями прорвавшись сквозь оцепление, бизнесменам удается добраться до города и встретиться лицом к лицу с организатором великолепной аферы. ...


Рейтинг на Кинопоиск.RU: 5.830

Видео: 720x576 (PAL 4:3), 25,000 fps, MPEG 2 Video, ~8000 kbps avg
Аудио:Русский 48 kHz, AC3, 2 ch (Front: L R), ~128 kbps avg

Семпл

Дополнительно :
Meню озвученное, статичное на русском языке, с навигацией по эпизодам.


Формат: MPEG-PS
Размер файла: 954 Мбайт
Продолжительность: 44 м.
Режим общего битрейта: Переменный
Общий поток: 3013 Кбит/сек

Видео
Идентификатор: 224 (0xE0)
Формат: MPEG Video
Версия формата: Version 2
Профиль формата: Main@Main
Параметр BVOP формата: Да
Параметр матрицы формата: Выборочная
Продолжительность: 44 м.
Вид битрейта: Переменный
Битрейт: 2825 Кбит/сек
Максимальный битрейт: 8000 Кбит/сек
Ширина: 720 пикселей
Высота: 576 пикселей
Соотношение сторон: 4:3
Частота кадров: 25,000 кадров/сек
Стандарт вещания: PAL
Цветовое пространство: YUV
Субдискретизация насыщенности: 4:2:0
Битовая глубина: 8 бит
Тип развёртки: Чересстрочная
Порядок развёртки: Верхнее поле первое
Метод сжатия: С потерями
Бит/(Пиксели*Кадры): 0.272
Размер потока: 894 Мбайт (94%)

Аудио
Идентификатор: 189 (0xBD)-128 (0x80)
Формат: AC-3
Формат/Информация: Audio Coding 3
Расширение режима: CM (complete main)
Режим смешивания: DVD-Video
Продолжительность: 44 м.
Вид битрейта: Постоянный
Битрейт: 128 Кбит/сек
Каналы: 2 канала
Расположение каналов: Front: L R
Частота: 48,0 КГц
Битовая глубина: 16 бит
Метод сжатия: С потерями
Размер потока: 40,5 Мбайт (4%)

Меню













Поделиться:




реклама партнёра


Вернуться к началу
 Профиль Отправить личное сообщение  
 
   Похожие торренты   Автор   Торрент   Размер 
В этой теме нет новых непрочитанных сообщений. Верю не верю [серия 1-12 из 12] (Станислав Мареев) [Детектив, 2015] HDTV 1080i

Dracon

27 | 14

31.32 ГБ

В этой теме нет новых непрочитанных сообщений. Верю не верю [серия 1-12 из 12] (Станислав Мареев) [Детектив, 2015] HDTVRip 720p

Dracon

137 | 64

18.61 ГБ

В этой теме нет новых непрочитанных сообщений. Верю не верю [серия 1-12 из 12] (Станислав Мареев) [Детектив, 2015] SATRip

Dracon

849 | 273

7.15 ГБ

В этой теме нет новых непрочитанных сообщений. Позывной 'Стая' 2 [01-04 из 04] [Боевик, 2013] SATRip

Dracon

5 | 2

2.15 ГБ

В этой теме нет новых непрочитанных сообщений. Стая / The Horde [ужасы, боевик, 2016] WEB-DLRip, Avo

salma3

605 | 71

1.47 ГБ

В этой теме нет новых непрочитанных сообщений. Стая акул / Shark Swarm [ужасы, боевик, триллер, драма, 2008 ] DVDRip, Mvo

salma3

12 | 8

2.05 ГБ

В этой теме нет новых непрочитанных сообщений. Позывной "Стая" 2 [01-12 из 12] [Боевик, 2014] SATRip

Dracon

824 | 209

6.45 ГБ


Начать новую тему Ответить на тему  [ 1 сообщение ] 




Для Мосгорсуда, Роскомнадзора и рекламодателей:: mosgorsud-torrent[собачка]yandex.ru