Торрент файл
скачать торрент магнет ссылка Добавлен: 07 янв 2012, 18:11
Размер: 6.07 ГБ
Сидеров: 4
Личеров: 2
Автор

СообщениеДобавлено: 07 янв 2012, 18:11 

Не в сети
Супермодератор
Аватара пользователя
Дата регистрации:
11 апр 2010, 18:10
Спасибо: 5802 / 7
Сообщения: 56779
Юппи Ду/ Поторопись, пока не вернулась жена / Yuppi Du [Ремастеринг]


Перевод: Профессиональный (одноголосый)
Субтитры:Отсутствуют
Формат: DVD9, DVD Video, MPEG2, AC3
Страна: Италия
Режиссер: Адриано Челентано, Мики Дель Прете
Жанр: комедия, драма
Продолжительность: 01:45:0
Год выпуска: 1976

В ролях: Адриано Челентано, Клаудиа Мори, Шарлотта Ремплинг, Джино Сантерколе, Розалинда Челентано, Карла Брайт, Джон Ли, Карла Манчини, Лино Тоффоло

Описание: Сильвия имитирует самоубийство, чтобы разорвать свой брак с Феличе и наконец-то жить с тем, с кем она хочет — миланским богачом. Несколько лет спустя Сильвия хочет вернуть ребенка, рожденного ею в браке с Феличе. Феличе, который тем временем женился, тешит себя мыслью снова увидеть Сильвию. Он всегда ее любил и хотел бы жить с ней и их ребенком. Но рядом женщина с не очень легким характером……...

Рейтинг на IMDB: 6.0/10
Рейтинг КиноПоиск.RU: 6.952

Видео: 720x576 (PAL 16:9), 25,000 fps, MPEG 2 Video, ~6981 kbps avg, 0.673 bit/pixel
Аудио #1:Русский 48 kHz, AC3, 2 ch (Front: L R), ~192 kbps avg [Профессиональный (одноголосый) (Н. Козырев)]
Аудио #2:Итальянский 48 kHz, AC3, 2 ch (Front: L R), ~192 kbpsavg [Оригинал]
Аудио #3:Итальянский 48 kHz, AC3, 6 ch (Front: L C R, Side: L R, LFE), ~448kbps avg [Оригинал]

Семпл

Дополнительно : Меню, выбор сцен, фотогалерея, ремастер от Sony BMG, 2008 г.


Формат: MPEG-PS
Размер файла: 1024 Мбайт
Продолжительность: 17 м.
Режим общего битрейта: Переменный
Общий поток: 7972 Кбит/сек

Видео
Идентификатор: 224 (0xE0)
Формат: MPEG Video
Версия формата: Version 2
Профиль формата: Main@Main
Параметр BVOP формата: Да
Параметр матрицы формата: По умолчанию
Продолжительность: 17 м.
Вид битрейта: Переменный
Битрейт: 6981 Кбит/сек
Ширина: 720 пикселей
Высота: 576 пикселей
Соотношение сторон: 2,35:1
Частота кадров: 25,000 кадров/сек
Стандарт вещания: PAL
Цветовое пространство: YUV
Субдискретизация насыщенности: 4:2:0
Битовая глубина: 8 бит
Метод сжатия: С потерями
Бит/(Пиксели*Кадры): 0.673
Размер потока: 897 Мбайт (88%)

Аудио #1
Идентификатор: 189 (0xBD)-128 (0x80)
Формат: AC-3
Формат/Информация: Audio Coding 3
Расширение режима: CM (complete main)
Режим смешивания: DVD-Video
Продолжительность: 17 м.
Вид битрейта: Постоянный
Битрейт: 192 Кбит/сек
Каналы: 2 канала
Расположение каналов: Front: L R
Частота: 48,0 КГц
Битовая глубина: 16 бит
Метод сжатия: С потерями
Задержка видео: -56 мс.
Размер потока: 24,7 Мбайт (2%)

Аудио #2
Идентификатор: 189 (0xBD)-129 (0x81)
Формат: AC-3
Формат/Информация: Audio Coding 3
Расширение режима: CM (complete main)
Режим смешивания: DVD-Video
Продолжительность: 17 м.
Вид битрейта: Постоянный
Битрейт: 192 Кбит/сек
Каналы: 2 канала
Расположение каналов: Front: L R
Частота: 48,0 КГц
Битовая глубина: 16 бит
Метод сжатия: С потерями
Задержка видео: -56 мс.
Размер потока: 24,7 Мбайт (2%)

Аудио #3
Идентификатор: 189 (0xBD)-130 (0x82)
Формат: AC-3
Формат/Информация: Audio Coding 3
Расширение режима: CM (complete main)
Режим смешивания: DVD-Video
Продолжительность: 17 м.
Вид битрейта: Постоянный
Битрейт: 448 Кбит/сек
Каналы: 6 каналов
Расположение каналов: Front: L C R, Side: L R, LFE
Частота: 48,0 КГц
Битовая глубина: 16 бит
Метод сжатия: С потерями
Задержка видео: -56 мс.
Размер потока: 57,5 Мбайт (6%)
















Поделиться:




реклама партнёра


Вернуться к началу
 Профиль Отправить личное сообщение  
 
   Похожие торренты   Автор   Торрент   Размер 
В этой теме нет новых непрочитанных сообщений. Adriano Celentano - Адриано Челентано [Pop, Disco, 1982] MP3, 320kbps

Dracon

48 | 12

96.01 МБ

В этой теме нет новых непрочитанных сообщений. Пока жена спит [2014 г., Amateur, CamRip]

Dievas

6 | 3

25.92 МБ

В этой теме нет новых непрочитанных сообщений. Трофейная Жена / Третья Жена / Trophy Wife [S01] [Комедия, 2013-2014] WEB-DLRip, Mvo [Fox Life]

salma3

56 | 21

5.29 ГБ

В этой теме нет новых непрочитанных сообщений. Пока мы молоды / While We're Young (Ноа Баумбак) [драма, комедия, 2014] HDRip-AVC, dvo

Dracon

67 | 4

1.36 ГБ

В этой теме нет новых непрочитанных сообщений. Пока мы молоды / While We're Young (Ноа Баумбак) [драма, комедия, 2014] BDRip 720p, dvo

Dracon

16 | 2

2.85 ГБ

В этой теме нет новых непрочитанных сообщений. Пока не сыграл в ящик / The Bucket List [комедия, драма, приключения, 2007] BDRip, Dub

salma3

94 | 4

1.46 ГБ

В этой теме нет новых непрочитанных сообщений. Сатанинское зелье / Satansbraten [драма, комедия, 1976] DVDRip, Mvo

salma3

11 | 2

1.36 ГБ


Начать новую тему Ответить на тему  [ 1 сообщение ] 




Для Мосгорсуда, Роскомнадзора и рекламодателей:: mosgorsud-torrent[собачка]yandex.ru