COVID-19 - Последняя информация о коронавирусе на сайте Минздрава




Торрент файл
скачать торрент магнет ссылка Добавлен: 07 янв 2012, 18:07
Размер: 5.82 ГБ
Сидеров: 0
Личеров: 12
Автор

СообщениеДобавлено: 07 янв 2012, 18:07 

Не в сети
Супермодератор
Аватара пользователя
Дата регистрации:
11 апр 2010, 18:10
Спасибо: 6059 / 7
Сообщения: 56660
К-9: Собачья работа / K-9


Перевод: Профессиональный (двухголосый)
Cубтитры:Английские, русские, датские, финские, шведские, новежские, словенские
Формат: DVD9, DVD Video, MPEG2, AC3
Страна: США
Режиссер: Род Дэниэл
Жанр: Боевик, комедия, криминал
Продолжительность: 01:37:10
Год выпуска: 1989

В ролях: Джеймс Белуши, Мэл Харрис, Кевин Тай, Джеймс Хэнди, Эд О’Нил, Джерри Ли, Дэниэл Дэвис, Коттер Смит, Джон Снайдер, Прюитт Тэйлор Винс

Описание: Веселый полицейский-выдумщик Майкл Дули попал в беду: его пытается убить известный наркодилер за то, что тот все время вмешивается в бизнес. Друг полицейского дает ему собаку по имени Джерри Ли, специально натасканную на запах наркотиков. С помощью пса Майкл надеется поймать преступника и разоблачить его, но не так все просто. У Джерри Ли свой характер и он работает только когда пожелает. К тому же собака принимает радостное участие в поломке машины Майкла, разгроме дома и его личной жизни…

Рейтинг на КиноПоиск:7.624[/field]
Рейтинг MPAA:PG-13[/field]
Рейтинг на IMDB:5.6/10[/field][/field]

Видео: 720x576, (PAL 16:9), MPEG2 Video,25,000 кадр/сек, ~ 9800 Кбит/сек
Аудио #1:Русский, 48,0 КГц, AC3,2 канала(ов), ~192 Кбит/сек [Профессиональный (двухголосый)]
Аудио #2:Английский, 48,0 КГц, AC3, 2 канала(ов), ~192 Кбит/сек [Оригинал][/field]


Полное имя: D:\К-9Собачья работа DVD-9\VIDEO_TS\VTS_01_1.VOB
Формат: MPEG-PS
Размер файла: 1024 Мбайт
Продолжительность: 17 м.
Общий поток: 8209 Кбит/сек
Видео
Идентификатор: 224 (0xE0)
Формат: MPEG Video
Версия формата: Version 2
Профиль формата: Main@Main
Параметр BVOP формата: Да
Параметр матрицы формата: По умолчанию
Продолжительность: 17 м.
Вид битрейта: Переменный
Битрейт: 7662 Кбит/сек
Номинальный битрейт: 9800 Кбит/сек
Ширина: 720 пикс.
Высота: 576 пикс.
Соотношение сторон: 16:9
Частота кадров: 25,000 кадр/сек
Стандарт вещания: PAL
Цветовое пространство: YUV
Подвыборка цветности: 4:2:0
Битовая глубина: 8 бит
Тип развёртки: Чересстрочная
Порядок развёртки: Верхнее поле первое
Метод сжатия: С потерями
Бит/(Пиксели*Кадры): 0.739
Размер потока: 956 Мбайт (93%)
Аудио #1
Идентификатор: 128 (0x80)
Формат: AC-3
Формат/Информация: Audio Coding 3
Профиль формата: Dolby Digital
Расширение режима: CM (complete main)
Продолжительность: 17 м.
Вид битрейта: Постоянный
Битрейт: 192 Кбит/сек
Канал(ы): 2 канала(ов)
Расположение каналов: Front: L R
Частота: 48,0 КГц
Битовая глубина: 16 бит
Метод сжатия: С потерями
Размер потока: 23,9 Мбайт (2%)
Аудио #2
Идентификатор: 129 (0x81)
Формат: AC-3
Формат/Информация: Audio Coding 3
Расширение режима: CM (complete main)
Продолжительность: 17 м.
Вид битрейта: Постоянный
Битрейт: 192 Кбит/сек
Канал(ы): 2 канала(ов)
Расположение каналов: Front: L R
Частота: 48,0 КГц
Битовая глубина: 16 бит
Метод сжатия: С потерями
Размер потока: 23,9 Мбайт (2%)
Текст #1
Идентификатор: 32 (0x20)
Формат: RLE
Формат/Информация: Run-length encoding
Текст #2
Идентификатор: 33 (0x21)
Формат: RLE
Формат/Информация: Run-length encoding
Текст #3
Идентификатор: 34 (0x22)
Формат: RLE
Формат/Информация: Run-length encoding
Текст #4
Идентификатор: 37 (0x25)
Формат: RLE
Формат/Информация: Run-length encoding
Текст #5
Идентификатор: 38 (0x26)
Формат: RLE
Формат/Информация: Run-length encoding
Текст #6
Идентификатор: 39 (0x27)
Формат: RLE
Формат/Информация: Run-length encoding
Текст #7
Идентификатор: 40 (0x2
Формат: RLE
Формат/Информация: Run-length encoding
Текст #8
Идентификатор: 41 (0x29)
Формат: RLE
Формат/Информация: Run-length encoding
Текст #9
Идентификатор: 42 (0x2A)
Формат: RLE
Формат/Информация: Run-length encoding
Меню
























Поделиться:



Скачать книги и аудио книги через торрент


Вернуться к началу
 Профиль Отправить личное сообщение  
 
   Похожие торренты   Автор   Торрент   Размер 
В этой теме нет новых непрочитанных сообщений. К-9: Собачья работа / K-9 [Боевик, комедия, 1989] BDRip 1080p, Mvo

salma3

0 | 0

9.49 ГБ

В этой теме нет новых непрочитанных сообщений. Летняя работа / Summer Job [комедия, 1989] VHSRip, Avo

salma3

2 | 0

824.6 МБ

В этой теме нет новых непрочитанных сообщений. Флетч жив! / Fletch Lives [комедия, криминал, детектив, 1989] HDRip, Dvo

salma3

0 | 0

1.45 ГБ

В этой теме нет новых непрочитанных сообщений. Кровавая работа / Blood Work [боевик, триллер, драма, 2002] BDRip 1080p, Dvo

salma3

8 | 2

12.07 ГБ

В этой теме нет новых непрочитанных сообщений. Грязная работа / Dirty Work [комедия, 1998] BDRip 1080p, Dvo

salma3

5 | 0

8.22 ГБ

В этой теме нет новых непрочитанных сообщений. Пацаны / The Boys (Сезон 1 , Серия 1-5 из 8) (Филип Сгриккиа, Дэниэл Эттиэс) [2019, Фантастика, Драма, боевик, комедия, криминал,WEB-DLRip 1080p] [LostFilm+Kubik v Kubike+HDRezka+ENG]+[Subs Rus , ENG]

Враг Нароода

0 | 0

10.67 ГБ

В этой теме нет новых непрочитанных сообщений. Пацаны / The Boys (Сезон 1 , Серия 1 из 8) (Филип Сгриккиа, Дэниэл Эттиэс) [2019, Фантастика, Драма, боевик, комедия, криминал,WEB-DLRip 1080p] [LostFilm+Kubik v Kubike+HDRezka+ENG]+[Subs Rus , ENG]

Враг Нароода


Начать новую тему Ответить на тему  [ 1 сообщение ] 




Для Мосгорсуда, Роскомнадзора и рекламодателей:: rstracker[собака]yandex.ru
cron