Торрент файл
скачать торрент магнет ссылка Добавлен: 07 янв 2012, 18:07
Размер: 5.64 ГБ
Сидеров: 3
Личеров: 4
Автор

СообщениеДобавлено: 07 янв 2012, 18:07 

Не в сети
Супермодератор
Аватара пользователя
Дата регистрации:
11 апр 2010, 18:10
Спасибо: 5802 / 7
Сообщения: 56779
К-9 III: Частные детективы / K-9: P.I.

Перевод: Профессиональный (двухголосый)
Cубтитры: Английские, русские, финские, шведские, датские (всего 12)
Формат: DVD9, DVD Video, MPEG2, AC3
Страна: США
Режиссер: Ричард Дж. Льюис
Жанр: Боевик, комедия, криминал
Продолжительность: 01:31:00
Год выпуска: 2002

В ролях: Джеймс Белуши, Гэри Басараба, Ким Хаффман, Джоди Расикот, Кристофер Шайер, Барбара Тайсон, Блу Манкума, Дункан Фрайзер, Джейсон Шомбинг, Кевин Дюран ...

Описание: Бесстрашный инспектор Дули и его немногословный четвероногий партнер Джерри Ли возвращаются, чтобы в очередной раз сразиться с преступниками! И, естественно, наша симпатичная парочка не избежит переделки с погонями и стрельбой. Так что напрасно доблестный Том Дули собрался в отставку: ведь кто, как не он, сможет всерьез «разобраться» с плохими парнями. И пусть старина Дули «попал под колпак» ФБР, это не помешает ему и его прославленному напарнику, полицейскому псу номер один Джерри Ли, выступить в роли частных детективов!

Рейтинг на КиноПоиск:6.581[/field]
Рейтинг MPAA:PG-13[/field]
Рейтинг на IMDB:5.1/10[/field][/field]

Видео: 720x576, (PAL 16:9), MPEG2 Video,25,000 кадр/сек, ~ 9800 Кбит/сек, 0.715 Бит/(Пиксели*Кадры)
Аудио #1:Английский, 48,0 КГц, AC3,6 канала(ов), ~384 Кбит/сек [Оригинал]
Аудио #2:Русский, 48,0 КГц, AC3, 2 канала(ов), ~192 Кбит/сек [Профессиональный (двухголосый)][/field]

Полное имя: D:\К-9 Частные детективы DVD-9\VIDEO_TS\VTS_01_1.VOB
Формат: MPEG-PS
Размер файла: 1024 Мбайт
Продолжительность: 17 м.
Общий поток: 8156 Кбит/сек
Видео
Идентификатор: 224 (0xE0)
Формат: MPEG Video
Версия формата: Version 2
Профиль формата: Main@Main
Параметр BVOP формата: Да
Параметр матрицы формата: По умолчанию
Продолжительность: 17 м.
Вид битрейта: Переменный
Битрейт: 7417 Кбит/сек
Номинальный битрейт: 9800 Кбит/сек
Ширина: 720 пикс.
Высота: 576 пикс.
Соотношение сторон: 16:9
Частота кадров: 25,000 кадр/сек
Стандарт вещания: PAL
Цветовое пространство: YUV
Подвыборка цветности: 4:2:0
Битовая глубина: 8 бит
Тип развёртки: Чересстрочная
Порядок развёртки: Верхнее поле первое
Метод сжатия: С потерями
Бит/(Пиксели*Кадры): 0.715
Размер потока: 931 Мбайт (91%)
Аудио #1
Идентификатор: 128 (0x80)
Формат: AC-3
Формат/Информация: Audio Coding 3
Расширение режима: CM (complete main)
Продолжительность: 17 м.
Вид битрейта: Постоянный
Битрейт: 384 Кбит/сек
Канал(ы): 6 канала(ов)
Расположение каналов: Front: L C R, Side: L R, LFE
Частота: 48,0 КГц
Битовая глубина: 16 бит
Метод сжатия: С потерями
Размер потока: 48,2 Мбайт (5%)
Аудио #2
Идентификатор: 129 (0x81)
Формат: AC-3
Формат/Информация: Audio Coding 3
Профиль формата: Dolby Digital
Расширение режима: CM (complete main)
Продолжительность: 17 м.
Вид битрейта: Постоянный
Битрейт: 192 Кбит/сек
Канал(ы): 2 канала(ов)
Расположение каналов: Front: L R
Частота: 48,0 КГц
Битовая глубина: 16 бит
Метод сжатия: С потерями
Размер потока: 24,1 Мбайт (2%)
Текст #1
Идентификатор: 32 (0x20)
Формат: RLE
Формат/Информация: Run-length encoding
Текст #2
Идентификатор: 33 (0x21)
Формат: RLE
Формат/Информация: Run-length encoding
Текст #3
Идентификатор: 34 (0x22)
Формат: RLE
Формат/Информация: Run-length encoding
Текст #4
Идентификатор: 35 (0x23)
Формат: RLE
Формат/Информация: Run-length encoding
Текст #5
Идентификатор: 36 (0x24)
Формат: RLE
Формат/Информация: Run-length encoding
Текст #6
Идентификатор: 37 (0x25)
Формат: RLE
Формат/Информация: Run-length encoding
Текст #7
Идентификатор: 38 (0x26)
Формат: RLE
Формат/Информация: Run-length encoding
Текст #8
Идентификатор: 39 (0x27)
Формат: RLE
Формат/Информация: Run-length encoding
Текст #9
Идентификатор: 40 (0x2
Формат: RLE
Формат/Информация: Run-length encoding
Текст #10
Идентификатор: 41 (0x29)
Формат: RLE
Формат/Информация: Run-length encoding
Текст #11
Идентификатор: 42 (0x2A)
Формат: RLE
Формат/Информация: Run-length encoding
Меню


























Поделиться:




реклама партнёра


Вернуться к началу
 Профиль Отправить личное сообщение  
 
   Похожие торренты   Автор   Торрент   Размер 
В этой теме нет новых непрочитанных сообщений. Подозреваемые / В поле зрения / Person of Interest [04x01-18 из 22] (Джеффри Дж. Хант, Ричард Дж. Льюис, Фред Туа) [2014-2015, боевик, триллер, драма, детектив, WEB-DLRip | LostFilm]

Nickolas3435

182 | 226

7.77 ГБ

В этой теме нет новых непрочитанных сообщений. Подозреваемые / В поле зрения / Person of Interest [04x01-17 из 22] (Джеффри Дж. Хант, Ричард Дж. Льюис, Фред Туа) [2014-2015, боевик, триллер, драма, детектив, WEB-DLRip | LostFilm]

Nickolas3435

123 | 139

7.33 ГБ

В этой теме нет новых непрочитанных сообщений. Подозреваемые / В поле зрения / Person of Interest [04x01-17 из 22] (Ричард Дж. Льюис, Дэвид Семел) [2014, Триллер, драма, WEB-DL 1080p | NewStudio]

Nickolas3435

11 | 11

29.57 ГБ

В этой теме нет новых непрочитанных сообщений. Шоу начинается / Showtime [боевик, комедия, криминал, 2002] HDRip-AVC, Dub

salma3

53 | 2

1.24 ГБ

В этой теме нет новых непрочитанных сообщений. Бей в голову / Kick to the Head [Боевик, комедия, криминал, 2002] DVDRip, Mvo

salma3

2 | 2

1.48 ГБ

В этой теме нет новых непрочитанных сообщений. Все о Бенджаминах / All About the Benjamins [боевик, триллер, комедия, криминал, 2002] WEB-DL 720p, Mvo+Sub

salma3

4 | 3

3.35 ГБ

В этой теме нет новых непрочитанных сообщений. Мачо и ботан 2 / 22 Jump Street [боевик, комедия, криминал, 2014] DVD9, Dub+Sub [лицензия]

Dracon

41 | 2

6.5 ГБ


Начать новую тему Ответить на тему  [ 1 сообщение ] 




Для Мосгорсуда, Роскомнадзора и рекламодателей:: mosgorsud-torrent[собачка]yandex.ru