Торрент файл
скачать торрент магнет ссылка Добавлен: 07 янв 2012, 18:07
Размер: 6.63 ГБ
Сидеров: 2
Личеров: 3
Автор

СообщениеДобавлено: 07 янв 2012, 18:07 

Не в сети
Супермодератор
Аватара пользователя
Дата регистрации:
11 апр 2010, 18:10
Спасибо: 5960 / 7
Сообщения: 56765
Неудовлетворенное сексуальное напряжение / Tension sexual no resuelta



Перевод: Профессиональный (полное дублирование)
Субтитры:Русские
Формат: DVD9, DVD Video, MPEG2, AC3
Страна: Испания
Режиссер: Мигель Анхель Ламата
Жанр: комедия
Продолжительность: 01:29:23
Год выпуска: 2010

В ролях: Норма Руис, Пилар Рубио, Салом Джименез, Мигель Анхель Муньос, Феле Мартинес, Амайя Саламанка, Адам Езерски, Сэмюэл Миро, Хоакин Рейс

Описание: В знойной Испании красавицы и красавцы увлеченно разбираются в хитросплетениях своей сексуальной жизни — кто, с кем, когда и к чему приводят мимолетные увлечения.

Рейтинг КиноПоиск.RU: 6.659
Рейтинг на IMDB: 4.7/10

Видео: 720 x 576 (PAL 16:9), MPEG-2 Video, 25.000 fps, ~ 8000 kbps avg, 0.731 bit/pixel
Аудио #1: Русский: 48.0 kHz, АС3, 6 ch, ~ 448 Kbps avg [Профессиональный (полное дублирование)]
Аудио #2: Испанский :48.0 kHz, АС3, 2 ch, ~192 Kbps avg [Оригинал]

Семпл


    Meню озвученное,на русском языке
    Создатели и исполнители
    Фотогалерея
    Смотрите на DVD

Формат: MPEG-PS
Размер файла: 1024 Мбайт
Продолжительность: 17 м.
Режим общего битрейта: Переменный
Общий поток: 8386 Кбит/сек

Видео
Идентификатор: 224 (0xE0)
Формат: MPEG Video
Версия формата: Version 2
Профиль формата: Main@Main
Параметр BVOP формата: Да
Параметр матрицы формата: Выборочная
Параметр GOP формата: M=3, N=15
Продолжительность: 17 м.
Вид битрейта: Переменный
Битрейт: 7579 Кбит/сек
Максимальный битрейт: 8000 Кбит/сек
Ширина: 720 пикселей
Высота: 576 пикселей
Соотношение сторон: 16:9
Частота кадров: 25,000 кадров/сек
Стандарт вещания: PAL
Цветовое пространство: YUV
Субдискретизация насыщенности: 4:2:0
Битовая глубина: 8 бит
Тип развёртки: Чересстрочная
Порядок развёртки: Верхнее поле первое
Метод сжатия: С потерями
Бит/(Пиксели*Кадры): 0.731
Размер потока: 925 Мбайт (90%)

Аудио #1
Идентификатор: 189 (0xBD)-128 (0x80)
Формат: AC-3
Формат/Информация: Audio Coding 3
Расширение режима: CM (complete main)
Режим смешивания: DVD-Video
Продолжительность: 17 м.
Вид битрейта: Постоянный
Битрейт: 448 Кбит/сек
Каналы: 6 каналов
Расположение каналов: Front: L C R, Side: L R, LFE
Частота: 48,0 КГц
Битовая глубина: 16 бит
Метод сжатия: С потерями
Размер потока: 54,7 Мбайт (5%)

Аудио #2
Идентификатор: 189 (0xBD)-129 (0x81)
Формат: AC-3
Формат/Информация: Audio Coding 3
Расширение режима: CM (complete main)
Режим смешивания: DVD-Video
Продолжительность: 17 м.
Вид битрейта: Постоянный
Битрейт: 192 Кбит/сек
Каналы: 2 канала
Расположение каналов: Front: L R
Частота: 48,0 КГц
Битовая глубина: 16 бит
Метод сжатия: С потерями
Размер потока: 23,4 Мбайт (2%)

Текст #1
Идентификатор: 189 (0xBD)-32 (0x20)
Формат: RLE
Формат/Информация: Run-length encoding
Режим смешивания: DVD-Video
Задержка видео: 15 с.

Текст #2
Идентификатор: 189 (0xBD)-33 (0x21)
Формат: RLE
Формат/Информация: Run-length encoding
Режим смешивания: DVD-Video
Задержка видео: 15 с.

Меню
































Поделиться:




реклама партнёра


Вернуться к началу
 Профиль Отправить личное сообщение  
 
   Похожие торренты   Автор   Торрент   Размер 
В этой теме нет новых непрочитанных сообщений. Sexual Bliss / Сексуальное Блаженство (2016) WEB-DL

amadei

12 | 4

1.42 ГБ

В этой теме нет новых непрочитанных сообщений. Сексуальное намерение / Сексуальная цель / Sexual Intent [Боевик, триллер, драма, 1997] VHSRip, Avo

salma3

67 | 8

747.53 МБ

В этой теме нет новых непрочитанных сообщений. [OnlyFans.com] Adriana Chechik, Alexis Monroe - Two Anal Loving Sluts Build Up Sexual Tension [2017 г., Group, Gang Bang, Foursome, Anal, DP, Creampie, 1080p]

salma3

20 | 7

1.47 ГБ

В этой теме нет новых непрочитанных сообщений. Добро пожаловать в Гармонию / Extinction (Мигель Анхель Вивас) [Ужасы, фантастика, драма, 2015] WEB-DLRip, Mvo

Dracon

90 | 4

1.37 ГБ

В этой теме нет новых непрочитанных сообщений. Добро пожаловать в Гармонию / Extinction (Мигель Анхель Вивас) [Ужасы, фантастика, драма, 2015] WEB-DLRip, Mvo

Dracon

7 | 2

2.05 ГБ

В этой теме нет новых непрочитанных сообщений. Добро пожаловать в Гармонию / Extinction (Мигель Анхель Вивас) [Ужасы, фантастика, драма, 2015] WEB-DL 720p, Mvo [iTunes]

Dracon

671 | 17

3.73 ГБ

В этой теме нет новых непрочитанных сообщений. Sex Weapon Il Killer Perfetto... / Сексуальное Оружие: Безукоризненный Убийца... (J.F. Romagnoli, ATV Entertainment) [2010 г., Feature, Straight, DP, WebRip]

max77777

14 | 2

1.5 ГБ


Начать новую тему Ответить на тему  [ 1 сообщение ] 




Для Мосгорсуда, Роскомнадзора и рекламодателей:: mosgorsud-torrent[собачка]yandex.ru