Торрент файл
скачать торрент магнет ссылка Добавлен: 07 янв 2012, 18:05
Размер: 7.13 ГБ
Сидеров: 5
Личеров: 6
Автор

СообщениеДобавлено: 07 янв 2012, 18:05 

Не в сети
Супермодератор
Аватара пользователя
Дата регистрации:
11 апр 2010, 18:10
Спасибо: 5802 / 7
Сообщения: 56779
Казино Рояль / Casino Royale


Перевод:Профессиональный (многоголосый, закадровый)
Cубтитры: Ангийские, испанские, французские, русские
Формат: DVD9, DVD Video, MPEG2, AC3
Страна: США, Великобритания
Режиссер: Вэл Гест, Кен Хьюз, Джон Хьюстон
Жанр: Боевик, комедия, приключения
Продолжительность: 02:11:00
Год выпуска: 1966

В ролях: Питер Селлерс, Урсула Андресс, Дэвид Нивен, Орсон Уэллс, Джоанна Петтет, Далия Лави, Вуди Аллен, Дебора Керр, Уильям Холден, Шарль Буайе

Описание: Единственная комедия бондианы, поставленная по одноименному роману Яна Флеминга. Могущественная тайная организация уничтожила всех агентов британской разведки. У королевской разведки единственный выход — обратиться за помощью к ушедшему на покой после гибели любимой девушки Джеймсу Бонду, легендарному агенту 007, обладающему лицензией на убийство…

Рейтинг на КиноПоиск:5.620[/field]
Рейтинг на IMDB:5.2/10[/field][/field]

Видео: 720x480, ( NTSC 16:9), MPEG2 Video, 29,970 кадр/сек, ~ 8700 Кбит/сек
Аудио #1: Английский, 48,0 КГц, AC3, 6 канала(ов), ~448 Кбит/сек [Оригинал]
Аудио #2: Русский, 48,0 КГц, AC3, 6 канала(ов), ~448 Кбит/сек [Профессиональный (многоголосый закадровый)]
Аудио #3: Испанский, 48,0 КГц, AC3, 2 канала(ов), ~192 Кбит/сек[/field]


Полное имя: H:\Фильмы DVD\БОНДИАНА\Казино Рояль_1967\VIDEO_TS\VTS_01_1.VOB
Формат: MPEG-PS
Размер файла: 1024 Мбайт
Продолжительность: 26 м.
Общий поток: 5504 Кбит/сек
Видео
Идентификатор: 224 (0xE0)
Формат: MPEG Video
Версия формата: Version 2
Профиль формата: Main@Main
Параметр BVOP формата: Да
Параметр матрицы формата: По умолчанию
Продолжительность: 26 м.
Вид битрейта: Переменный
Битрейт: 4307 Кбит/сек
Номинальный битрейт: 8700 Кбит/сек
Ширина: 720 пикс.
Высота: 480 пикс.
Соотношение сторон: 16:9
Частота кадров: 29,970 кадр/сек
Стандарт вещания: NTSC
Цветовое пространство: YUV
Подвыборка цветности: 4:2:0
Битовая глубина: 8 бит
Метод сжатия: С потерями
Бит/(Пиксели*Кадры): 0.416
Размер потока: 801 Мбайт (78%)
Аудио #1
Идентификатор: 128 (0x80)
Формат: AC-3
Формат/Информация: Audio Coding 3
Расширение режима: CM (complete main)
Продолжительность: 26 м.
Вид битрейта: Постоянный
Битрейт: 448 Кбит/сек
Канал(ы): 6 канала(ов)
Расположение каналов: Front: L C R, Side: L R, LFE
Частота: 48,0 КГц
Битовая глубина: 16 бит
Метод сжатия: С потерями
Размер потока: 83,3 Мбайт (8%)
Аудио #2
Идентификатор: 129 (0x81)
Формат: AC-3
Формат/Информация: Audio Coding 3
Расширение режима: CM (complete main)
Продолжительность: 26 м.
Вид битрейта: Постоянный
Битрейт: 448 Кбит/сек
Канал(ы): 6 канала(ов)
Расположение каналов: Front: L C R, Side: L R, LFE
Частота: 48,0 КГц
Битовая глубина: 16 бит
Метод сжатия: С потерями
Размер потока: 83,3 Мбайт (8%)
Аудио #3
Идентификатор: 130 (0x82)
Формат: AC-3
Формат/Информация: Audio Coding 3
Расширение режима: CM (complete main)
Продолжительность: 26 м.
Вид битрейта: Постоянный
Битрейт: 192 Кбит/сек
Канал(ы): 2 канала(ов)
Расположение каналов: Front: L R
Частота: 48,0 КГц
Битовая глубина: 16 бит
Метод сжатия: С потерями
Размер потока: 35,7 Мбайт (3%)
Текст #1
Идентификатор: 32 (0x20)
Формат: RLE
Формат/Информация: Run-length encoding
Задержка видео: 15 с.
Текст #2
Идентификатор: 33 (0x21)
Формат: RLE
Формат/Информация: Run-length encoding
Задержка видео: 15 с.
Текст #3
Идентификатор: 34 (0x22)
Формат: RLE
Формат/Информация: Run-length encoding
Задержка видео: 15 с.
Текст #4
Идентификатор: 35 (0x23)
Формат: RLE
Формат/Информация: Run-length encoding
Задержка видео: 15 с.
Текст #5
Идентификатор: 224 (0xE0)-DVD-2
Формат: EIA-608
Режим смешивания: DVD-Video
Режим смешивания, доп. информаци : Muxed in Video #1
Размер потока: 0,00 байт (0%)
Меню
























Оскар, 1968 год
Номинации (1):
* Лучшая песня — «The Look of Love»
Британская академия, 1968 год
Номинации (1):
* Лучшая работа костюмера (цветные фильмы)

Поделиться:




реклама партнёра


Вернуться к началу
 Профиль Отправить личное сообщение  
 
   Похожие торренты   Автор   Торрент   Размер 
В этой теме нет новых непрочитанных сообщений. Казино Рояль / Casino Royale [комедия, 1967] BDRip 720p, Mvo

salma3

3 | 2

6.77 ГБ

В этой теме нет новых непрочитанных сообщений. Казино Джек / Casino Jack [Драма, комедия, криминал, биография, 2009] BDRip 720p, Dub+Sub

salma3

67 | 19

6.41 ГБ

В этой теме нет новых непрочитанных сообщений. Недооформлен Неудержимые 3 / The Expendables 3 (Патрик Хьюз) [2014 г., боевик, триллер, приключения, DVDScr-AVC] Данный торрент является блокированным, причина: недооформленный торрент

max77777

3 | 6

2 ГБ

В этой теме нет новых непрочитанных сообщений. Исповедь мойщика окон / Confessions of a Window Cleaner (Вэл Гест) [1974 г., Комедия, эротика, DVDRip 400p]

Max79

4 | 7

1.45 ГБ

В этой теме нет новых непрочитанных сообщений. Миссия невыполнима / Mission: Impossible [S01] [боевик, триллер, драма, приключения, 1966] DVDRip, Avo [Белов]

salma3

99 | 68

11.71 ГБ

В этой теме нет новых непрочитанных сообщений. Хороший, плохой, злой / The Good, the Bad and the Ugly [Вестерн, боевик, приключения, 1966] BDRip 1080p, Mvo+Dvo+Avo+Sub

salma3

39 | 14

19.71 ГБ

В этой теме нет новых непрочитанных сообщений. Модести Блэйз / Modesty Blaise [комедия, приключения, 1966] HDRip, Mvo

salma3

98 | 23

1.45 ГБ


Начать новую тему Ответить на тему  [ 1 сообщение ] 




Для Мосгорсуда, Роскомнадзора и рекламодателей:: mosgorsud-torrent[собачка]yandex.ru