COVID-19 - Последняя информация о коронавирусе на сайте Минздрава




Торрент файл
скачать торрент магнет ссылка Добавлен: 07 янв 2012, 18:05
Размер: 7.73 ГБ
Сидеров: 0
Личеров: 5
Автор

СообщениеДобавлено: 07 янв 2012, 18:05 

Не в сети
Супермодератор
Аватара пользователя
Дата регистрации:
11 апр 2010, 18:10
Спасибо: 6059 / 7
Сообщения: 56660
Арабские приключения (2 серии из 2) / Arabian Nights

Перевод: Профессиональный (многоголосый, закадровый)
Cубтитры: Русские
Формат: DVD9, DVD Video, MPEG2, AC3
Страна: США
Режиссер: Стив Бэррон
Жанр: Фэнтези, приключения, семейный
Продолжительность: 01:29:12 + 01:28:14
Год выпуска: 2000

В ролях: Мили Авитал, Алан Бейтс, Джеймс Фрейн, Чеки Карио, Джейсон Скотт Ли, Джон Легуизамо, Ванесса Мэй, Дюгрэй Скотт, Руфус Сьюэлл, Джим Картер

Описание: Обезумевший от страха султан, которому во всем видится измена, должен жениться, чтобы сохранить трон. Дочь его визиря, Шехерезада, влюбившаяся в султана еще когда они оба были подростками, вызывается стать его супругой, хотя и знает, что ее ждет смерть. Чтобы отвлечь мужа от кошмарных снов и подозрений, она начинает рассказывать ему сказки…

Рейтинг на КиноПоиск:7.632[/field]
Рейтинг на IMDB:7.2/10[/field][/field]

Видео: 720x576, (PAL 4:3), MPEG2 Video, 25,000 кадр/сек
Аудио#1: Русский, 48,0 КГц, AC3, 6 канала(ов), ~448 Кбит/сек [Профессиональный (многоголосый, закадровый)]
Аудио#2: Английский, 48,0 КГц, AC3,канала(ов), ~192 Кбит/сек [Оригинал][/field]

Доп. информация: Релиз на DVD 28 мая 2009, «CP-Digital»

Полное имя: C:\Арабские приключения DVD-9\VIDEO_TS\VTS_03_1.VOB
Формат: MPEG-PS
Размер файла: 1024 Мбайт
Продолжительность: 23 м.
Общий поток: 5976 Кбит/сек
Видео
Идентификатор: 224 (0xE0)
Формат: MPEG Video
Версия формата: Version 2
Профиль формата: Main@Main
Параметр BVOP формата: Да
Параметр матрицы формата: По умолчанию
Параметры GOP формата: M=3, N=15
Продолжительность: 23 м.
Вид битрейта: Переменный
Битрейт: 5217 Кбит/сек
Номинальный битрейт: 8528 Кбит/сек
Ширина: 720 пикс.
Высота: 576 пикс.
Соотношение сторон: 4:3
Частота кадров: 25,000 кадр/сек
Стандарт вещания: PAL
Цветовое пространство: YUV
Подвыборка цветности: 4:2:0
Битовая глубина: 8 бит
Тип развёртки: Чересстрочная
Порядок развёртки: Верхнее поле первое
Метод сжатия: С потерями
Бит/(Пиксели*Кадры): 0.503
Размер потока: 894 Мбайт (87%)
Аудио #1
Идентификатор: 128 (0x80)
Формат: AC-3
Формат/Информация: Audio Coding 3
Расширение режима: CM (complete main)
Продолжительность: 23 м.
Вид битрейта: Постоянный
Битрейт: 448 Кбит/сек
Канал(ы): 6 канала(ов)
Расположение каналов: Front: L C R, Side: L R, LFE
Частота: 48,0 КГц
Битовая глубина: 16 бит
Метод сжатия: С потерями
Задержка видео: -80 мс.
Размер потока: 76,8 Мбайт (7%)
Аудио #2
Идентификатор: 129 (0x81)
Формат: AC-3
Формат/Информация: Audio Coding 3
Расширение режима: CM (complete main)
Продолжительность: 23 м.
Вид битрейта: Постоянный
Битрейт: 192 Кбит/сек
Канал(ы): 2 канала(ов)
Расположение каналов: Front: L R
Частота: 48,0 КГц
Битовая глубина: 16 бит
Метод сжатия: С потерями
Задержка видео: -80 мс.
Размер потока: 32,9 Мбайт (3%)
Текст
Идентификатор: 32 (0x20)
Формат: RLE
Формат/Информация: Run-length encoding
Задержка видео: 880 мс.
Меню
























Поделиться:



Скачать книги и аудио книги через торрент


Вернуться к началу
 Профиль Отправить личное сообщение  
 
   Похожие торренты   Автор   Торрент   Размер 
В этой теме нет новых непрочитанных сообщений. Арабские приключения / Arabian Adventure [Сказка, приключения, семейный, 1979] WEBRip 720p, Dub

salma3

0 | 0

4.71 ГБ

В этой теме нет новых непрочитанных сообщений. Кристофер Робин / Christopher Robin [фэнтези, драма, комедия, приключения, семейный, 2018] DVD9, Dub | [Лицензия]

NTL

0 | 0

6.23 ГБ

В этой теме нет новых непрочитанных сообщений. Фантастические твари: Преступления Грин-де-Вальда / Fantastic Beasts: The Crimes of Grindelwald [фэнтези, приключения, семейный, 2018] DVD9+DVD5, Dub [Лицензия]

K15

0 | 0

9.2 ГБ

В этой теме нет новых непрочитанных сообщений. [FantasyMassage.com] Cadey Mercury (Arabian Nights / 18.10.2017) [Brunette, Tattoo, Shower, Body Massage, Blowjob, Cum in Mouth, Deepthroat, Hardcore, Masturbation, Natural Tits, 1080p]

salma3

5 | 1

985.24 МБ

В этой теме нет новых непрочитанных сообщений. Теккен / Tekken [Фантастика, боевик, фэнтези, драма, приключения, 2010] DVD9, Mvo

NTL

0 | 0

5.41 ГБ

В этой теме нет новых непрочитанных сообщений. Охотники за древностями / Relic Hunter [S02] [Приключения, фэнтези, мистика, 2000] WEB-DL 1080p, Mvo [СТС]

salma3

0 | 0

84.1 ГБ

В этой теме нет новых непрочитанных сообщений. Путешествия Гулливера / Gulliver's Travels [Фэнтези, приключения, семейный, 1996] DVDRip, Mvo

salma3

39 | 13

2.19 ГБ


Начать новую тему Ответить на тему  [ 1 сообщение ] 




Для Мосгорсуда, Роскомнадзора и рекламодателей:: rstracker[собака]yandex.ru
cron
cron