Торрент файл
скачать торрент магнет ссылка Добавлен: 07 янв 2012, 18:04
Размер: 6.14 ГБ
Сидеров: 0
Личеров: 7
Автор

СообщениеДобавлено: 07 янв 2012, 18:04 

Не в сети
Супермодератор
Аватара пользователя
Дата регистрации:
11 апр 2010, 18:10
Спасибо: 5965 / 7
Сообщения: 56761
Гоп-стоп / Fric-Frac

Перевод:Профессиональный(одноголосый)
Cубтитры: отсутствуют
Формат: DVD9, DVD Video, MPEG2, AC3
Страна: Франция
Режиссер: Морис Леманн
Жанр: Комедия
Продолжительность: 01:42:14
Год выпуска: 1939

В ролях: Фернандель, Мишель Симон, Арлетти Хелен, Роберт Андре, Рене Женен, Жениа Ваури, Жак Варенн, Марсель Валли, Каде Риверз

Описание: Помощник ювелира, Марсель, встречается и немедленно влюбляется в красавицу Лулу, несмотря на то, что он помолвлен с Рене, дочерью его хозяина. На самом деле Лулу и ее друг, Джо — мелкие воришки. Они играют на легковерии Марселя, делая его невольным сообщником в краже драгоценных камней.

Рейтинг на КиноПоиск:7.583[/field]
Рейтинг на IMDB:6.8/10[/field][/field]

Видео: 720x576, (PAL 4:3), MPEG2 Video, 25,000 кадр/сек, ~ 5856 Кбит/сек
Аудио #1:Русский, 48,0 КГц, AC3, 2 канала(ов), ~192 Кбит/сек [Профессиональный (одноголосый) (Роман Янкелевич)][/field]
Аудио #2:Французский, 48,0 КГц, AC3, 2 канала(ов), ~192 Кбит/сек [Оригинал][/field]

Доп. информация: Фильм снят по пьесе Эдуара Борде. Другое название фильма "Ограбление".


Полное имя: H:\Фильмы DVD\Гоп-стоп DVD9\VIDEO_TS\VTS_01_1.VOB
Формат: MPEG-PS
Размер файла: 1024 Мбайт
Продолжительность: 22 м.
Общий поток: 6366 Кбит/сек
Библиотека кодирования: (c) 1998-2010 Womble Multimedia, Inc. / MPEG Video Wizard DVD 5.0 (01/2010) / Jan 29 2010
Видео
Идентификатор: 224 (0xE0)
Формат: MPEG Video
Версия формата: Version 2
Профиль формата: Main@Main
Параметр BVOP формата: Да
Параметр матрицы формата: По умолчанию
Продолжительность: 22 м.
Вид битрейта: Переменный
Битрейт: 5856 Кбит/сек
Номинальный битрейт: 100,0 Кбит/сек
Ширина: 720 пикс.
Высота: 576 пикс.
Соотношение сторон: 4:3
Частота кадров: 25,000 кадр/сек
Стандарт вещания: PAL
Цветовое пространство: YUV
Подвыборка цветности: 4:2:0
Битовая глубина: 8 бит
Метод сжатия: С потерями
Бит/(Пиксели*Кадры): 0.565
Размер потока: 942 Мбайт (92%)
Библиотека кодирования: (c) 1998-2010 Womble Multimedia, Inc. / MPEG Video Wizard DVD 5.0 (01/2010) / Jan 29 2010
Аудио #1
Идентификатор: 128 (0x80)
Формат: AC-3
Формат/Информация: Audio Coding 3
Расширение режима: CM (complete main)
Продолжительность: 22 м.
Вид битрейта: Постоянный
Битрейт: 192 Кбит/сек
Канал(ы): 2 канала(ов)
Расположение каналов: Front: L R
Частота: 48,0 КГц
Битовая глубина: 16 бит
Метод сжатия: С потерями
Размер потока: 30,9 Мбайт (3%)
Аудио #2
Идентификатор: 129 (0x81)
Формат: AC-3
Формат/Информация: Audio Coding 3
Расширение режима: CM (complete main)
Продолжительность: 22 м.
Вид битрейта: Постоянный
Битрейт: 192 Кбит/сек
Канал(ы): 2 канала(ов)
Расположение каналов: Front: L R
Частота: 48,0 КГц
Битовая глубина: 16 бит
Метод сжатия: С потерями
Размер потока: 30,9 Мбайт (3%)
Меню


























Поделиться:




реклама партнёра


Вернуться к началу
 Профиль Отправить личное сообщение  
 
   Похожие торренты   Автор   Торрент   Размер 
В этой теме нет новых непрочитанных сообщений. Морис Ришар / Maurice Richard [Драма, биография, спорт, 2005] BDRip 1080p, Avo+Sub

salma3

12 | 3

12.01 ГБ

В этой теме нет новых непрочитанных сообщений. Морис Ришар / Maurice Richard [Драма, биография, спорт, 2005] BDRip 720p, Avo+Sub

salma3

14 | 3

5.04 ГБ

В этой теме нет новых непрочитанных сообщений. Наша Вселенная 3D / Our Universe 3D (Манфред Леманн, Глен МакКреди) [2013, Документальный, HDRip | D]

salma3

0 | 0

835.18 МБ

В этой теме нет новых непрочитанных сообщений. Боцман Чайка [01-04 из 04] (Роман Славин) [Комедия, 2014] DVB

Dracon

29 | 6

3.49 ГБ

В этой теме нет новых непрочитанных сообщений. Плохая соседка (Роман Барабаш) [Комедия, 2015] WEB-DLRip

Dracon

410 | 12

1.37 ГБ

В этой теме нет новых непрочитанных сообщений. Плохая соседка (Роман Барабаш) [Комедия, 2015] WEB-DL 1080p

Dracon

51 | 9

1.89 ГБ

В этой теме нет новых непрочитанных сообщений. Гена-Бетон (Роман Качанов) [Комедия, 2014] WebRip

Dracon

1 | 0

750.64 МБ


Начать новую тему Ответить на тему  [ 1 сообщение ] 




Для Мосгорсуда, Роскомнадзора и рекламодателей:: mosgorsud-torrent[собачка]yandex.ru