Торрент файл
скачать торрент магнет ссылка Добавлен: 07 янв 2012, 18:04
Размер: 7.71 ГБ
Сидеров: 0
Личеров: 4
Автор

СообщениеДобавлено: 07 янв 2012, 18:04 

Не в сети
Супермодератор
Аватара пользователя
Дата регистрации:
11 апр 2010, 18:10
Спасибо: 5801 / 7
Сообщения: 56779
Великолепные Эмберсоны / The Magnificent Ambersons


Перевод: Профессиональный (многоголосый, закадровый)
Субтитры: Русские
Формат: DVD9, DVD Video, MPEG2, AC3
Страна: США
Режиссер: Альфонсо Арау
Жанр: драма
Продолжительность:02:19:05
Год выпуска: 2002

В ролях: Маделейн Стоу, Брюс Гринвуд, Джонатан Рис Мейерс, Гретхен Мол, Дженнифер Тилли, Уильям Хуткинс, Дина Мэрилл, Джеймс Кромвелл, Джейн Бреннан, Келли Кэмпбелл, Патрик Кларк, Бернард Диган, Майрид Дэвлин, Джо Галлахер, Дэвид Гиллиам, Фиона Глэскотт, Гэррик Хэгон, Боско Хоган, Даррен МакХью, Имон Роэн

Описание: Три поколения богатой американской семьи Эмберсонов верили в то, что их положение прочно и незыблемо. Но наступают новые времена, и такой привычный окружающий мир рушится до основания. А избалованный и легкомысленный юный Джордж Эмберсон после смерти отца совсем «теряет голову» от свалившегося на него богатства.

Обуреваемый себялюбием, он запрещает своей матери Изабель встречаться с человеком, которого она любит, и порывает со своей возлюбленной, растоптав собственные романтические чувства…


Рейтинг КиноПоиск.RU: 8.027
Рейтинг на IMDB: 5.8

Видео: 720x480 (NTSC 4:3), 23,976 fps, MPEG-2 Video ~ 6300 kbps avg
Аудио #1: Русский: 48 kHz, AC3 Dolby Digital, 2 ch, ~ 192kbps avg [Профессиональный (многоголосый, закадровый)]
Аудио #2: Английский: 48 kHz, AC3 Dolby Digital, 2 ch, ~ 192kbps avg [Оригинал]

Доп.информация:
Meню озвученное, частично анимированное, на английском языке, с навигацией по эпизодам. Все кнопки функциональны.

Слоган: «Сказание о Великой Американской мечте»


Общее
Полное имя: D:\Великолепные Эмберсоны\VIDEO_TS\VTS_01_4.VOB
Формат: MPEG-PS
Размер файла: 1024 Мбайт
Продолжительность: 21 м.
Режим общего битрейта: Переменный
Общий поток: 6812 Кбит/сек

Видео
Идентификатор: 224 (0xE0)
Формат: MPEG Video
Версия формата: Version 2
Профиль формата: Main@Main
Параметр BVOP формата: Да
Параметр матрицы формата: По умолчанию
Параметр GOP формата: M=3, N=13
Продолжительность: 21 м.
Вид битрейта: Переменный
Битрейт: 6292 Кбит/сек
Максимальный битрейт: 6300 Кбит/сек
Ширина: 720 пикселей
Высота: 480 пикселей
Соотношение сторон: 4:3
Частота кадров: 23,976 кадра/сек
Стандарт вещания: NTSC
Цветовое пространство: YUV
Субдискретизация насыщенности: 4:2:0
Битовая глубина: 8 бит
Тип развёртки: Прогрессивная
Порядок развёртки: 2:3 Pulldown
Метод сжатия: С потерями
Бит/(Пиксели*Кадры): 0.759
Размер потока: 946 Мбайт (92%)
Основные цвета: SMPTE 170M
Характеристики трансфера: SMPTE 170M
Коэффициенты матрицы: SMPTE 170M

Аудио #1
Идентификатор: 189 (0xBD)-128 (0x80)
Формат: AC-3
Формат/Информация: Audio Coding 3
Профиль формата: Dolby Digital
Расширение режима: CM (complete main)
Режим смешивания: DVD-Video
Продолжительность: 21 м.
Вид битрейта: Постоянный
Битрейт: 192 Кбит/сек
Каналы: 2 канала
Расположение каналов: Front: L R
Частота: 48,0 КГц
Битовая глубина: 16 бит
Метод сжатия: С потерями
Задержка видео: -340 мс.
Размер потока: 28,9 Мбайт (3%)

Аудио #2
Идентификатор: 189 (0xBD)-129 (0x81)
Формат: AC-3
Формат/Информация: Audio Coding 3
Расширение режима: CM (complete main)
Режим смешивания: DVD-Video
Продолжительность: 21 м.
Вид битрейта: Постоянный
Битрейт: 192 Кбит/сек
Каналы: 2 канала
Расположение каналов: Front: L R
Частота: 48,0 КГц
Битовая глубина: 16 бит
Метод сжатия: С потерями
Задержка видео: -340 мс.
Размер потока: 28,9 Мбайт (3%)

Текст
Идентификатор: 224 (0xE0)-DVD-2
Формат: EIA-608
Режим смешивания: DVD-Video
Режим смешивания, доп. информаци : Muxed in Video #1
Вид битрейта: Постоянный
Размер потока: 0,00 байт (0%)

















Поделиться:




реклама партнёра


Вернуться к началу
 Профиль Отправить личное сообщение  
 
   Похожие торренты   Автор   Торрент   Размер 
В этой теме нет новых непрочитанных сообщений. The Magnificent – The Magnificent [Japanese Edition] [2011, Melodic Rock, AOR, MP3]

PriZraK

0 | 1

142.51 МБ

В этой теме нет новых непрочитанных сообщений. Верь / Believe [S01] (Альфонсо Куарон, Роксанн Доусон) [2014, фэнтези, драма, WEB-DLRip | LostFilm]

Nickolas3435

517 | 188

5.34 ГБ

В этой теме нет новых непрочитанных сообщений. Красные браслеты / Red Band Society [01x01-07] (Альфонсо Гомез-Рейон) [2014, Драма, WEB-DLRip | Невафильм]

Nickolas3435

14 | 22

3.76 ГБ

В этой теме нет новых непрочитанных сообщений. Красные браслеты / Red Band Society [01x01-07] (Альфонсо Гомез-Рейон) [2014, Драма, WEB-DL 720p | Невафильм]

Nickolas3435

5 | 5

10.04 ГБ

В этой теме нет новых непрочитанных сообщений. Я, Эрл и умирающая девушка / Me and Earl and the Dying Girl (Альфонсо Гомез-Рейон) [драма, комедия, 2015] HDRip, mvo [iTunes]

Dracon

143 | 6

1.45 ГБ

В этой теме нет новых непрочитанных сообщений. Я, Эрл и умирающая девушка / Me and Earl and the Dying Girl (Альфонсо Гомез-Рейон) [драма, комедия, 2015] BDRip 1080p, mvo [iTunes]

Dracon

40 | 4

8.74 ГБ

В этой теме нет новых непрочитанных сообщений. Я, Эрл и умирающая девушка / Me and Earl and the Dying Girl (Альфонсо Гомез-Рейон) [драма, комедия, 2015] BDRip 720p, mvo+sub [iTunes]

Dracon

148 | 10

7.46 ГБ


Начать новую тему Ответить на тему  [ 1 сообщение ] 




Для Мосгорсуда, Роскомнадзора и рекламодателей:: mosgorsud-torrent[собачка]yandex.ru