Торрент файл
скачать торрент магнет ссылка Добавлен: 07 янв 2012, 18:03
Размер: 16.7 ГБ
Сидеров: 8
Личеров: 5
Автор

СообщениеДобавлено: 07 янв 2012, 18:03 

Не в сети
Супермодератор
Аватара пользователя
Дата регистрации:
11 апр 2010, 18:10
Спасибо: 5799 / 7
Сообщения: 56779
Вариант "Омега" [Ремастеринг] (5 серий из 5)


Перевод: Не требуется
Субтитры:Русские
Формат: DVD9, DVD Video, MPEG2, AC3
Страна: СССР
Режиссер: Антонис Воязос
Жанр: Военный
Продолжительность: 5 ~ 01:10:00
Год выпуска: 1975

В ролях: Олег Даль, Игорь Васильев, Ирина Печерникова, Елена Прудникова, Евгений Евстигнеев, Вадим Яковлев, Сергей Полежаев, Александр Калягин, Алексей Эйбоженко, Федор Никитин, Виталий Коняев, Рейно Арен

Описание: В основе фильма — документальный материал о действиях советской разведки в оккупированном гитлеровцами Таллинне.Советский разведчик Сергей Скорин внедряется в разведорганы фашистской Германии, стремящиеся дезинформировать Ставку Верховного Главнокомандования советских вооруженных сил.

Рейтинг на КиноПоиск:8.397[/field]
Рейтинг на IMDB:6.9/10[/field][/field]

Видео: 720x576, ( PAL 4:3), MPEG2 Video, 25,000 кадр/сек, ~ 6050 Кбит/сек
Аудио #1: Русский, 48,0 КГц, AC3, 6 канала(ов), ~448 Кбит/сек
Аудио #2: Русский, 48,0 КГц, AC3, 1 канал, ~128 Кбит/сек

Доп. информация: Полная реставрация изображения и звука, Крупный план. Издание из трёх дисков (стекло)

Размер: 2хDVD9+DVD5
Диск 1: 1 и 2 серии (DVD9) 6.49 Gb
Диск 2: 3 и 4 серии (DVD9) 6.82 Gb
Диск 3: 5 серия + фильмография актеров (DVD5) 3.39 Gb


Полное имя: I:\Фильмы DVD\Наши\Вариант Омега 2хDVD-9+DVD-5\disc1\VIDEO_TS\VTS_03_1.VOB
Формат: MPEG-PS
Размер файла: 1024 Мбайт
Продолжительность: 21 м.
Общий поток: 6671 Кбит/сек
Видео
Идентификатор: 224 (0xE0)
Формат: MPEG Video
Версия формата: Version 2
Профиль формата: Main@Main
Параметр BVOP формата: Да
Параметр матрицы формата: По умолчанию
Параметры GOP формата: M=3, N=15
Продолжительность: 21 м.
Вид битрейта: Переменный
Битрейт: 6050 Кбит/сек
Ширина: 720 пикс.
Высота: 576 пикс.
Соотношение сторон: 4:3
Частота кадров: 25,000 кадр/сек
Стандарт вещания: PAL
Цветовое пространство: YUV
Подвыборка цветности: 4:2:0
Битовая глубина: 8 бит
Тип развёртки: Чересстрочная
Порядок развёртки: Верхнее поле первое
Метод сжатия: С потерями
Бит/(Пиксели*Кадры): 0.584
Размер потока: 915 Мбайт (89%)
Аудио #1
Идентификатор: 128 (0x80)
Формат: AC-3
Формат/Информация: Audio Coding 3
Расширение режима: CM (complete main)
Продолжительность: 21 м.
Вид битрейта: Постоянный
Битрейт: 448 Кбит/сек
Канал(ы): 6 канала(ов)
Расположение каналов: Front: L C R, Side: L R, LFE
Частота: 48,0 КГц
Битовая глубина: 16 бит
Метод сжатия: С потерями
Задержка видео: -80 мс.
Размер потока: 68,7 Мбайт (7%)
Аудио #2
Идентификатор: 129 (0x81)
Формат: AC-3
Формат/Информация: Audio Coding 3
Расширение режима: CM (complete main)
Продолжительность: 21 м.
Вид битрейта: Постоянный
Битрейт: 128 Кбит/сек
Канал(ы): 1 канал
Расположение каналов: Front: C
Частота: 48,0 КГц
Битовая глубина: 16 бит
Метод сжатия: С потерями
Задержка видео: -80 мс.
Размер потока: 19,6 Мбайт (2%)
Меню




































































Поделиться:




реклама партнёра


Вернуться к началу
 Профиль Отправить личное сообщение  
 
   Похожие торренты   Автор   Торрент   Размер 
В этой теме нет новых непрочитанных сообщений. Таинственные исчезновения Сталина из его 2-ой ссылки ("Белый взрыв", "Сталин") Меняйлов [2014, военный, история, комедия, HDRip]

vairgin

2 | 3

1.38 ГБ

В этой теме нет новых непрочитанных сообщений. "Надо" товарища Сталина ("День командира дивизии") (Алексей Меняйлов) [2014, военный, документальный, история, WEBRip]

vairgin

75 | 18

328.03 МБ

В этой теме нет новых непрочитанных сообщений. Принцип "трахни меня" на войне и в жизни ("Золушка", 1947, Шапиро, Кошеверова)[комедия, приключения, военный, 2013] HDRip

vairgin

0 | 2

713.36 МБ

В этой теме нет новых непрочитанных сообщений. Меняйлов предупреждает: анатомия "Сталинграда" Бондарчука [военный, приключения,2013], HDRip

EvgenijUg

11 | 4

167.57 МБ

В этой теме нет новых непрочитанных сообщений. Операция "Нижняя юбка" / Operation Petticoat [мелодрама, комедия, военный, 1959] DVDRip, Mvo

salma3

21 | 3

1.37 ГБ

В этой теме нет новых непрочитанных сообщений. При попытке к бегству ("Красота по-американски", 1999) Меняйлов [2014, Драма, детектив, военный, HDRip]

EvgenijUg

14 | 5

568.54 МБ

В этой теме нет новых непрочитанных сообщений. Сталин: деблокирование Сталинграда Готом (Меняйлов) "Горячий снег" [2013, Документальный военный история, WEBRip]

vairgin

9 | 2

449.28 МБ


Начать новую тему Ответить на тему  [ 1 сообщение ] 




Для Мосгорсуда, Роскомнадзора и рекламодателей:: mosgorsud-torrent[собачка]yandex.ru