Торрент файл
скачать торрент магнет ссылка Добавлен: 07 янв 2012, 17:56
Размер: 6.68 ГБ
Сидеров: 3
Личеров: 7
Автор

СообщениеДобавлено: 07 янв 2012, 17:56 

Не в сети
Супермодератор
Аватара пользователя
Дата регистрации:
11 апр 2010, 18:10
Спасибо: 5801 / 7
Сообщения: 56779
История любви и кинжала/ История любви и ножей / Er piu: storia d'amore e di coltello


Перевод: Профессиональный (многоголосый, закадровый)
Субтитры: Отсутствуют
Формат: DVD9, DVD Video, MPEG2, AC3/DTS
Страна: Италия
Режиссер: Серджио Корбуччи
Жанр: драма, комедия, история
Продолжительность: 01:41:39
Год выпуска: 1971

В ролях: Адриано Челентано, Клаудия Мори, Фиоренцо Фиорентини, Витторио Каприоли, Ромоло Валли, Джанни Маччиа, Маурицио Арена, Нинетто Даволи, Джино Сантерколе, Анита Дюранте....

Описание: Крутой бандит Нино, держащий в страхе целый квартал Рима, возвращается из тюрьмы. Он узнает, что за его невестой, красавицей Розой, ухаживает мясник Агусто. Такой наглости Нино не мог стерпеть… Но у покойника остались три брата. Теперь кровавой вендетты не избежать…..

Рейтинг на IMDB: 5.8/10
Рейтинг на КиноПоиске: 7.212

Видео: 720x576 (PAL4:3), MPEG-2 Video, 25.000 fps, ~ 7276 kbps avg
Аудио #5: Русский: 48.0 kHz, АС3, 2 ch, ~ 192 Kbps avg [Профессиональный (многоголосый, закадровый)]
Аудио #1: Итальянский: 48.0 kHz, АС3, 2 ch, ~ 448 Kbps avg [Оригинал]
Аудио #2: Немецкий: 48.0 kHz, АС3, 6 ch, ~ 448 Kbps avg
Аудио #3: Немецкий: 48.0 kHz, DTS, 6 ch, ~ 755 Kbps avg

Семпл

Дополнительно:Meню озвученное,анимированное, на русском языке

Формат: MPEG-PS
Размер файла: 1000 Мбайт
Продолжительность: 15 м.
Общий поток: 9304 Кбит/сек

Видео
Идентификатор: 224 (0xE0)
Формат: MPEG Video
Версия формата: Version 2
Профиль формата: Main@Main
Параметр BVOP формата: Да
Параметр матрицы формата: По умолчанию
Параметр GOP формата: M=3, N=13
Продолжительность: 15 м.
Битрейт: 7276 Кбит/сек
Максимальный битрейт: 7300 Кбит/сек
Ширина: 720 пикселей
Высота: 576 пикселей
Соотношение сторон: 4:3
Частота кадров: 25,000 кадров/сек
Стандарт вещания: PAL
Цветовое пространство: YUV
Субдискретизация насыщенности: 4:2:0
Битовая глубина: 8 бит
Тип развёртки: Чересстрочная
Порядок развёртки: Верхнее поле первое
Метод сжатия: С потерями
Бит/(Пиксели*Кадры): 0.702
Размер потока: 782 Мбайт (78%)
Основные цвета: BT.470-2 System B, BT.470-2 System G
Характеристики трансфера: BT.470-2 System B, BT.470-2 System G
Коэффициенты матрицы: BT.470-2 System B, BT.470-2 System G

Аудио #1
Идентификатор: 189 (0xBD)-128 (0x80)
Формат: AC-3
Формат/Информация: Audio Coding 3
Расширение режима: CM (complete main)
Режим смешивания: DVD-Video
Продолжительность: 15 м.
Вид битрейта: Постоянный
Битрейт: 192 Кбит/сек
Каналы: 2 канала
Расположение каналов: Front: L R
Частота: 48,0 КГц
Битовая глубина: 16 бит
Метод сжатия: С потерями
Задержка видео: -160 мс.
Размер потока: 20,6 Мбайт (2%)

Аудио #2
Идентификатор: 189 (0xBD)-129 (0x81)
Формат: AC-3
Формат/Информация: Audio Coding 3
Профиль формата: Dolby Digital
Расширение режима: CM (complete main)
Режим смешивания: DVD-Video
Продолжительность: 15 м.
Вид битрейта: Постоянный
Битрейт: 448 Кбит/сек
Каналы: 2 канала
Расположение каналов: Front: L R
Частота: 48,0 КГц
Битовая глубина: 16 бит
Метод сжатия: С потерями
Задержка видео: -224 мс.
Размер потока: 48,2 Мбайт (5%)

Аудио #3
Идентификатор: 189 (0xBD)-130 (0x82)
Формат: AC-3
Формат/Информация: Audio Coding 3
Расширение режима: CM (complete main)
Режим смешивания: DVD-Video
Продолжительность: 15 м.
Вид битрейта: Постоянный
Битрейт: 448 Кбит/сек
Каналы: 6 каналов
Расположение каналов: Front: L C R, Side: L R, LFE
Частота: 48,0 КГц
Битовая глубина: 16 бит
Метод сжатия: С потерями
Задержка видео: -224 мс.
Размер потока: 48,2 Мбайт (5%)

Аудио #4
Идентификатор: 189 (0xBD)-139 (0x8B)
Формат: DTS
Формат/Информация: Digital Theater Systems
Режим смешивания: DVD-Video
Продолжительность: 15 м.
Вид битрейта: Постоянный
Битрейт: 755 Кбит/сек
Каналы: 6 каналов
Расположение каналов: Front: L C R, Side: L R, LFE
Частота: 48,0 КГц
Битовая глубина: 24 бит
Метод сжатия: С потерями
Задержка видео: -256 мс.
Размер потока: 81,1 Мбайт (8%)

Меню


















Поделиться:




реклама партнёра


Вернуться к началу
 Профиль Отправить личное сообщение  
 
   Похожие торренты   Автор   Торрент   Размер 
В этой теме нет новых непрочитанных сообщений. История вечной любви / Ever After: A Cinderella Story [драма, мелодрама, комедия, 1998] BDRip 720p, 2Mvo+Sub

salma3

14 | 6

4.61 ГБ

В этой теме нет новых непрочитанных сообщений. История любви / Une histoire d'amour [драма, 2013] DVDRip, Dvo

salma3

20 | 3

1.12 ГБ

В этой теме нет новых непрочитанных сообщений. Диана: История любви / Diana [драма, мелодрама, биография, 2013] WEBRip, Dub

Dracon

2273 | 184

1.58 ГБ

В этой теме нет новых непрочитанных сообщений. История любви Джаянты-бхая / Jayantabhai Ki Luv Story [боевик, мелодрама, комедия, 2013] DVDRip, Avo+Sub

salma3

61 | 3

1.4 ГБ

В этой теме нет новых непрочитанных сообщений. Диана: История любви / Diana [драма, мелодрама, биография, 2013] HDRip, Dub [iTunes]

Dracon

34 | 4

2.05 ГБ

В этой теме нет новых непрочитанных сообщений. Диана: История любви / Diana [драма, мелодрама, биография, 2013] Blu-Ray 1080p, Dub+Sub [Лицензия]

Dracon

0 | 3

16.88 ГБ

В этой теме нет новых непрочитанных сообщений. Диана: История любви / Diana [драма, мелодрама, биография, 2013] WEB-DL 720p, Dub [iTunes]

Dracon

20 | 5

3.6 ГБ


Начать новую тему Ответить на тему  [ 1 сообщение ] 




Для Мосгорсуда, Роскомнадзора и рекламодателей:: mosgorsud-torrent[собачка]yandex.ru