Торрент файл
скачать торрент магнет ссылка Добавлен: 07 янв 2012, 17:55
Размер: 7.43 ГБ
Сидеров: 0
Личеров: 8
Автор

СообщениеДобавлено: 07 янв 2012, 17:55 

Не в сети
Супермодератор
Аватара пользователя
Дата регистрации:
11 апр 2010, 18:10
Спасибо: 5802 / 7
Сообщения: 56779
Ализея и прекрасный принц / Sorellina e il principe del sogno

Перевод: Профессиональный (многоголосый, закадровый)
Cубтитры: Русские
Формат: DVD9, DVD Video, MPEG2, AC3
Страна: Германия, Италия
Режиссер: Ламберто Бава
Жанр: Фэнтези
Продолжительность: 03:12:54
Год выпуска: 1996

В ролях: Вероника Логан, Николь Гримаудо, Раз Деган, Оливер Кристиан Рудольф, Аня Крус, Бриджитт Карнер, Валерия Марини, Кристофер Ли, Юрген Прохнов, Карел Роден

Описание: Маленькую Ализею вместе с пятью братьями похищает злой волшебник Азарет. Бежать из заточения Ализее помогает юный принц Демион. Проходят годы и их судьбы вновь пересекаются

Рейтинг на КиноПоиск:6.917[/field]
Рейтинг на IMDB:6.2/10[/field][/field]

Видео: 720x576, ( PAL 4:3), MPEG2 Video, 25,000 кадр/сек, ~ 5000 Кбит/сек
Аудио#1: Английский, 48,0 КГц, AC3, 2 канала(ов), ~192 Кбит/сек [Профессиональный (многоголосый, закадровый)]
Аудио#2: Русский, 48,0 КГц, AC3, 2 канала(ов), ~192 Кбит/сек [Оригинал][/field]

Доп. информация: Релиз на DVD 14 мая 2009, «Cinema Prestige»

Полное имя: H:\Фильмы DVD\Ализея и прекрасный принц DVD-9\VIDEO_TS\VTS_03_1.VOB
Формат: MPEG-PS
Размер файла: 1024 Мбайт
Продолжительность: 26 м.
Общий поток: 5503 Кбит/сек
Видео
Идентификатор: 224 (0xE0)
Формат: MPEG Video
Версия формата: Version 2
Профиль формата: Main@Main
Параметр BVOP формата: Да
Параметр матрицы формата: По умолчанию
Параметры GOP формата: M=3, N=13
Продолжительность: 26 м.
Вид битрейта: Постоянный
Битрейт: 5000 Кбит/сек
Ширина: 720 пикс.
Высота: 576 пикс.
Соотношение сторон: 4:3
Частота кадров: 25,000 кадр/сек
Стандарт вещания: PAL
Цветовое пространство: YUV
Подвыборка цветности: 4:2:0
Битовая глубина: 8 бит
Тип развёртки: Чересстрочная
Порядок развёртки: Верхнее поле первое
Метод сжатия: С потерями
Бит/(Пиксели*Кадры): 0.482
Размер потока: 932 Мбайт (91%)
Аудио #1
Идентификатор: 128 (0x80)
Формат: AC-3
Формат/Информация: Audio Coding 3
Расширение режима: CM (complete main)
Продолжительность: 26 м.
Вид битрейта: Постоянный
Битрейт: 192 Кбит/сек
Канал(ы): 2 канала(ов)
Расположение каналов: Front: L R
Частота: 48,0 КГц
Битовая глубина: 16 бит
Метод сжатия: С потерями
Размер потока: 35,7 Мбайт (3%)
Аудио #2
Идентификатор: 129 (0x81)
Формат: AC-3
Формат/Информация: Audio Coding 3
Расширение режима: CM (complete main)
Продолжительность: 26 м.
Вид битрейта: Постоянный
Битрейт: 192 Кбит/сек
Канал(ы): 2 канала(ов)
Расположение каналов: Front: L R
Частота: 48,0 КГц
Битовая глубина: 16 бит
Метод сжатия: С потерями
Размер потока: 35,7 Мбайт (3%)
Меню




























Поделиться:




реклама партнёра


Вернуться к началу
 Профиль Отправить личное сообщение  
 
   Похожие торренты   Автор   Торрент   Размер 
В этой теме нет новых непрочитанных сообщений. Пираты / Caraibi [01-04 из 04] (Ламберто Бава) [1999, приключения, DVDRip] mvo

Nickolas3435

697 | 48

4.37 ГБ

В этой теме нет новых непрочитанных сообщений. Требуется принц для богатой наследницы / Principe coronato cercasi per ricca ereditiera [комедия, 1970] DVDRip, Avo

salma3

1 | 1

1.6 ГБ

В этой теме нет новых непрочитанных сообщений. Принц из снов / Dream for an Insomniac [драма, мелодрама, комедия, 1996] DVDRip, Mvo

salma3

32 | 4

991.07 МБ

В этой теме нет новых непрочитанных сообщений. Принцесса и нищий / Il principe abusivo [комедия, 2013] HDRip, Mvo

Dracon

1684 | 80

1.46 ГБ

В этой теме нет новых непрочитанных сообщений. Темный принц / Dracula: The Dark Prince (Тео Пирри) [Фэнтези, 2013] BDRip 720p, avo

Dracon

68 | 7

4.51 ГБ

В этой теме нет новых непрочитанных сообщений. Темный принц / Dracula: The Dark Prince (Тео Пирри) [Фэнтези, 2013] BDRip 1080p, avo

Dracon

12 | 4

8.85 ГБ

В этой теме нет новых непрочитанных сообщений. Дракула: Тёмный принц / Dracula: The Dark Prince (Тео Пирри) [Фэнтези, 2013] HDRip, avo

Dracon

12 | 4

1.35 ГБ


Начать новую тему Ответить на тему  [ 1 сообщение ] 




Для Мосгорсуда, Роскомнадзора и рекламодателей:: mosgorsud-torrent[собачка]yandex.ru