Торрент файл
скачать торрент магнет ссылка Добавлен: 07 янв 2012, 17:55
Размер: 6.84 ГБ
Сидеров: 5
Личеров: 8
Автор

СообщениеДобавлено: 07 янв 2012, 17:55 

Не в сети
Супермодератор
Аватара пользователя
Дата регистрации:
11 апр 2010, 18:10
Спасибо: 5799 / 7
Сообщения: 56779
Кортик(3 серии из 3)

Перевод: Не требуется
Субтитры: отсутствуют
Формат: DVD9, DVD Video, MPEG2, AC3
Страна: СССР
Режиссер: Николай Калинин
Жанр: Приключения, семейный, история
Продолжительность: 03:28:15
Год выпуска: 1973

В ролях: Сергей Шевкуненко, Владимир Дичковский, Зоя Фёдорова, Эммануил Виторган, Виктор Сергачев, Наталья Чемодурова, Михаил Голубович, Эдуард Горячий, Гедиминас Карка, Леонид Кмит

Описание: Пионеры 20-х годов пытаются раскрыть тайну морского кортика, хранящего шифрованное послание. Но при этом им приходится то и дело вступать в противостояние с бандитами…

Рейтинг на КиноПоиск:8.064[/field]
Рейтинг на IMDB:7.6/10[/field][/field]

Видео: 720x576, ( PAL4:3), MPEG2 Video, 25,000 кадр/сек, ~ 6000 Кбит/сек
Аудио: Русский, 48,0 КГц, AC3, 2 канала(ов), ~224 Кбит/сек

Доп. информация: Релиз от компании "Магнат".
Первая часть трилогии "Кортик"-"Бронзовая птица"-"Последнее лето детства" по мотивам произведений А.Рыбакова





Полное имя: I:\Фильмы DVD\Наши\Кортик DVD-9\VIDEO_TS\VTS_01_1.VOB
Формат: MPEG-PS
Размер файла: 954 Мбайт
Продолжительность: 29 м.
Общий поток: 4474 Кбит/сек
Видео
Идентификатор: 224 (0xE0)
Формат: MPEG Video
Версия формата: Version 2
Профиль формата: Main@Main
Параметр BVOP формата: Да
Параметр матрицы формата: По умолчанию
Параметры GOP формата: M=3, N=12
Продолжительность: 29 м.
Вид битрейта: Переменный
Битрейт: 4161 Кбит/сек
Номинальный битрейт: 6000 Кбит/сек
Ширина: 720 пикс.
Высота: 576 пикс.
Соотношение сторон: 4:3
Частота кадров: 25,000 кадр/сек
Стандарт вещания: PAL
Цветовое пространство: YUV
Подвыборка цветности: 4:2:0
Битовая глубина: 8 бит
Тип развёртки: Чересстрочная
Порядок развёртки: Нижнее поле первое
Метод сжатия: С потерями
Бит/(Пиксели*Кадры): 0.401
Размер потока: 887 Мбайт (93%)
Аудио
Идентификатор: 128 (0x80)
Формат: AC-3
Формат/Информация: Audio Coding 3
Расширение режима: CM (complete main)
Продолжительность: 29 м.
Вид битрейта: Постоянный
Битрейт: 224 Кбит/сек
Канал(ы): 2 канала(ов)
Расположение каналов: Front: L R
Частота: 48,0 КГц
Битовая глубина: 16 бит
Метод сжатия: С потерями
Задержка видео: -80 мс.
Размер потока: 47,8 Мбайт (5%)
Меню






























Поделиться:




реклама партнёра


Вернуться к началу
 Профиль Отправить личное сообщение  
 
   Похожие торренты   Автор   Торрент   Размер 
В этой теме нет новых непрочитанных сообщений. Семейный альбом [01-14 серии из 14] [Мелодрама, история, семейный, 2016] WEBRip

Dracon

6 | 5

10.3 ГБ

В этой теме нет новых непрочитанных сообщений. Сын ворона [Серии 1-8 из 8] [боевик, приключения, история, 2014] SATRip

Dracon

10 | 3

4.47 ГБ

В этой теме нет новых непрочитанных сообщений. Геркулес на Олимпе / Hercules [Мультфильм, приключения, семейный, история, 1997] DVDRip, Dub

salma3

22 | 3

609.52 МБ

В этой теме нет новых непрочитанных сообщений. В поисках Дори / Finding Dory (Мультфильм, комедия, приключения, семейный, 2016) DVD9 | Custom

marya111

29 | 18

6.39 ГБ

В этой теме нет новых непрочитанных сообщений. Анна и король / Anna and the King [Мультфильм, приключения, семейный, история, 2000] DVDRip, dub

salma3

21 | 4

655.29 МБ

В этой теме нет новых непрочитанных сообщений. Младенец на прогулке, или Ползком от гангстеров / Baby's Day Out [ Комедия, криминал, приключения, семейный, 1994] DVD9, Mvo+Sub [Лицензия]

salma3

12 | 3

4.43 ГБ

В этой теме нет новых непрочитанных сообщений. Как приручить дракона 2 / How to Train Your Dragon 2 [мультфильм, фэнтези, комедия, приключения, семейный, 2014] DVD9, Dub+Sub [лицензия]

Dracon

49 | 2

7.54 ГБ


Начать новую тему Ответить на тему  [ 1 сообщение ] 




Для Мосгорсуда, Роскомнадзора и рекламодателей:: mosgorsud-torrent[собачка]yandex.ru