COVID-19 - Последняя информация о коронавирусе на сайте Минздрава




Торрент файл
скачать торрент магнет ссылка Добавлен: 07 янв 2012, 17:55
Размер: 6.41 ГБ
Сидеров: 13
Личеров: 8
Автор

СообщениеДобавлено: 07 янв 2012, 17:55 

Не в сети
Супермодератор
Аватара пользователя
Дата регистрации:
11 апр 2010, 18:10
Спасибо: 6059 / 7
Сообщения: 56660
Бронзовая птица(3 серии из 3)

Перевод: Не требуется
Субтитры: отсутствуют
Формат: DVD9, DVD Video, MPEG2, AC3
Страна: СССР
Режиссер: Николай Калинин
Жанр: Боевик, приключения, семейный
Продолжительность: 03:11:24
Год выпуска: 1974

В ролях: Сергей Шевкуненко, Владимир Дичковский, Игорь Шульженко, Мария Капнист, Юрий Сидоров, Виктор Чекмарев, Николай Кузьмин, Августин Милованов, Николай Крюков, Лилия Гурова

Описание: В первые послевоенные годы дети ищут спрятанные еще до войны сокровища, секрет которых хранит бронзовая статуэтка хищной птицы.

Рейтинг на КиноПоиск:8.064[/field]
Рейтинг на IMDB:7.4/10[/field][/field]

Видео: 720x576, ( PAL4:3), MPEG2 Video, 25,000 кадр/сек, ~ 7000 Кбит/сек
Аудио: Русский, 48,0 КГц, AC3, 2 канала(ов), ~224 Кбит/сек

Доп. информация: Релиз от компании "Магнат".
Вторая часть трилогии "Кортик"-"Бронзовая птица"-"Последнее лето детства" по мотивам произведений А.Рыбакова





Полное имя: I:\Фильмы DVD\Наши\Бронзовая птица DVD-9\VIDEO_TS\VTS_01_1.VOB
Формат: MPEG-PS
Размер файла: 954 Мбайт
Продолжительность: 27 м.
Общий поток: 4803 Кбит/сек
Видео
Идентификатор: 224 (0xE0)
Формат: MPEG Video
Версия формата: Version 2
Профиль формата: Main@Main
Параметр BVOP формата: Да
Параметр матрицы формата: По умолчанию
Параметры GOP формата: M=3, N=12
Продолжительность: 27 м.
Вид битрейта: Постоянный
Битрейт: 4483 Кбит/сек
Номинальный битрейт: 7000 Кбит/сек
Ширина: 720 пикс.
Высота: 576 пикс.
Соотношение сторон: 4:3
Частота кадров: 25,000 кадр/сек
Стандарт вещания: PAL
Цветовое пространство: YUV
Подвыборка цветности: 4:2:0
Битовая глубина: 8 бит
Тип развёртки: Чересстрочная
Порядок развёртки: Нижнее поле первое
Метод сжатия: С потерями
Бит/(Пиксели*Кадры): 0.432
Размер потока: 890 Мбайт (93%)
Аудио
Идентификатор: 128 (0x80)
Формат: AC-3
Формат/Информация: Audio Coding 3
Расширение режима: CM (complete main)
Продолжительность: 27 м.
Вид битрейта: Постоянный
Битрейт: 224 Кбит/сек
Канал(ы): 2 канала(ов)
Расположение каналов: Front: L R
Частота: 48,0 КГц
Битовая глубина: 16 бит
Метод сжатия: С потерями
Задержка видео: -80 мс.
Размер потока: 44,5 Мбайт (5%)
Меню






























Поделиться:



Скачать книги и аудио книги через торрент


Вернуться к началу
 Профиль Отправить личное сообщение  
 
   Похожие торренты   Автор   Торрент   Размер 
В этой теме нет новых непрочитанных сообщений. Последнее лето детства (3 серии из 3) [приключения, семейный, 1974] DVDRip

salma3

7 | 3

1.45 ГБ

В этой теме нет новых непрочитанных сообщений. Кристофер Робин / Christopher Robin [фэнтези, драма, комедия, приключения, семейный, 2018] DVD9, Dub | [Лицензия]

NTL

0 | 0

6.23 ГБ

В этой теме нет новых непрочитанных сообщений. Сладкий фильм / Sweet Movie [драма, комедия, арт-хаус, 1974] DVD9, Avo

K15

7 | 1

6.98 ГБ

В этой теме нет новых непрочитанных сообщений. Фантастические твари: Преступления Грин-де-Вальда / Fantastic Beasts: The Crimes of Grindelwald [фэнтези, приключения, семейный, 2018] DVD9+DVD5, Dub [Лицензия]

K15

0 | 0

9.2 ГБ

В этой теме нет новых непрочитанных сообщений. Рэмпейдж / Rampage [фантастика, боевик, приключения, 2018] DVD9, Dub | Лицензия

NTL

0 | 0

5.73 ГБ

В этой теме нет новых непрочитанных сообщений. 22 мили / Mile 22 [боевик, триллер, приключения, 2018] DVD9, Dub | [Лицензия]

NTL

0 | 0

7.27 ГБ

В этой теме нет новых непрочитанных сообщений. Дэдпул 2 / Deadpool 2 [фантастика, боевик, комедия, приключения, 2018] DVD9, Dub | Лицензия

NTL

7 | 0

6.1 ГБ


Начать новую тему Ответить на тему  [ 1 сообщение ] 




Для Мосгорсуда, Роскомнадзора и рекламодателей:: rstracker[собака]yandex.ru
cron