Торрент файл
скачать торрент магнет ссылка Добавлен: 07 янв 2012, 17:55
Размер: 6.41 ГБ
Сидеров: 10
Личеров: 7
Автор

СообщениеДобавлено: 07 янв 2012, 17:55 

Не в сети
Супермодератор
Аватара пользователя
Дата регистрации:
11 апр 2010, 18:10
Спасибо: 5965 / 7
Сообщения: 56761
Бронзовая птица(3 серии из 3)

Перевод: Не требуется
Субтитры: отсутствуют
Формат: DVD9, DVD Video, MPEG2, AC3
Страна: СССР
Режиссер: Николай Калинин
Жанр: Боевик, приключения, семейный
Продолжительность: 03:11:24
Год выпуска: 1974

В ролях: Сергей Шевкуненко, Владимир Дичковский, Игорь Шульженко, Мария Капнист, Юрий Сидоров, Виктор Чекмарев, Николай Кузьмин, Августин Милованов, Николай Крюков, Лилия Гурова

Описание: В первые послевоенные годы дети ищут спрятанные еще до войны сокровища, секрет которых хранит бронзовая статуэтка хищной птицы.

Рейтинг на КиноПоиск:8.064[/field]
Рейтинг на IMDB:7.4/10[/field][/field]

Видео: 720x576, ( PAL4:3), MPEG2 Video, 25,000 кадр/сек, ~ 7000 Кбит/сек
Аудио: Русский, 48,0 КГц, AC3, 2 канала(ов), ~224 Кбит/сек

Доп. информация: Релиз от компании "Магнат".
Вторая часть трилогии "Кортик"-"Бронзовая птица"-"Последнее лето детства" по мотивам произведений А.Рыбакова





Полное имя: I:\Фильмы DVD\Наши\Бронзовая птица DVD-9\VIDEO_TS\VTS_01_1.VOB
Формат: MPEG-PS
Размер файла: 954 Мбайт
Продолжительность: 27 м.
Общий поток: 4803 Кбит/сек
Видео
Идентификатор: 224 (0xE0)
Формат: MPEG Video
Версия формата: Version 2
Профиль формата: Main@Main
Параметр BVOP формата: Да
Параметр матрицы формата: По умолчанию
Параметры GOP формата: M=3, N=12
Продолжительность: 27 м.
Вид битрейта: Постоянный
Битрейт: 4483 Кбит/сек
Номинальный битрейт: 7000 Кбит/сек
Ширина: 720 пикс.
Высота: 576 пикс.
Соотношение сторон: 4:3
Частота кадров: 25,000 кадр/сек
Стандарт вещания: PAL
Цветовое пространство: YUV
Подвыборка цветности: 4:2:0
Битовая глубина: 8 бит
Тип развёртки: Чересстрочная
Порядок развёртки: Нижнее поле первое
Метод сжатия: С потерями
Бит/(Пиксели*Кадры): 0.432
Размер потока: 890 Мбайт (93%)
Аудио
Идентификатор: 128 (0x80)
Формат: AC-3
Формат/Информация: Audio Coding 3
Расширение режима: CM (complete main)
Продолжительность: 27 м.
Вид битрейта: Постоянный
Битрейт: 224 Кбит/сек
Канал(ы): 2 канала(ов)
Расположение каналов: Front: L R
Частота: 48,0 КГц
Битовая глубина: 16 бит
Метод сжатия: С потерями
Задержка видео: -80 мс.
Размер потока: 44,5 Мбайт (5%)
Меню






























Поделиться:




реклама партнёра


Вернуться к началу
 Профиль Отправить личное сообщение  
 
   Похожие торренты   Автор   Торрент   Размер 
В этой теме нет новых непрочитанных сообщений. Птица Феникс и ковер-самолет / The Phoenix and the Carpet [фэнтези, приключения, семейный, 1997] DVDRip, Mvo

salma3

34 | 3

1.46 ГБ

В этой теме нет новых непрочитанных сообщений. Бамбуковые боги и стальные бойцы / Bamboo Gods and Iron Men [Боевик, драма, комедия, криминал, приключения, 1974] DVDRip, Avo

salma3

47 | 7

745.3 МБ

В этой теме нет новых непрочитанных сообщений. В поисках Дори / Finding Dory (Мультфильм, комедия, приключения, семейный, 2016) DVD9 | Custom

marya111

29 | 18

6.39 ГБ

В этой теме нет новых непрочитанных сообщений. Невероятные приключения итальянцев в России [комедия, приключения, 1974] DVDRip

salma3

61 | 9

1.46 ГБ

В этой теме нет новых непрочитанных сообщений. Красный райдинг 1974 / Red Riding 1974 [детектив, 2009] BDRip 720p, Dvo+Sub

salma3

83 | 9

4.04 ГБ

В этой теме нет новых непрочитанных сообщений. Макс. Динотерра / Max Adventures in Dinoterra / 2 сезон, 1-22 серии из 22 [приключения, фэнтези, семейный, 2013] SATRip, Dub

salma3

14 | 5

3.48 ГБ

В этой теме нет новых непрочитанных сообщений. Стальной рассвет / Steel Dawn [Фантастика, боевик, приключения, 1987] DVD9, Dvo

salma3

13 | 6

6.84 ГБ


Начать новую тему Ответить на тему  [ 1 сообщение ] 




Для Мосгорсуда, Роскомнадзора и рекламодателей:: mosgorsud-torrent[собачка]yandex.ru