COVID-19 - Последняя информация о коронавирусе на сайте Минздрава




Торрент файл
скачать торрент магнет ссылка Добавлен: 07 янв 2012, 17:55
Размер: 6.32 ГБ
Сидеров: 8
Личеров: 6
Автор

СообщениеДобавлено: 07 янв 2012, 17:55 

Не в сети
Супермодератор
Аватара пользователя
Дата регистрации:
11 апр 2010, 18:10
Спасибо: 6059 / 7
Сообщения: 56660
Последнее лето детства(3 серии из 3)

Перевод: Не требуется
Субтитры: отсутствуют
Формат: DVD9, DVD Video, MPEG2, AC3
Страна: СССР
Режиссер: Валерий Рубинчик
Жанр: Приключения, семейный
Продолжительность: 03:13:51
Год выпуска: 1974

В ролях: Владимир Антоник, Евгений Евстигнеев, Вячеслав Молоков, Сергей Беляк, Александр Катько, Олег Грачев, Людмила Куцелай, Александр Жданов, Леонид Белозорович, Николай Денисов

Описание: Историко-приключенческий фильм по роману А. Рыбакова. Заключительный фильм трилогии «Кортик» — «Бронзовая птица» — «Последнее лето детства».

Рейтинг на КиноПоиск:7.188[/field]
Рейтинг на IMDB:6.3/10[/field][/field]

Видео: 720x576, ( PAL4:3), MPEG2 Video, 25,000 кадр/сек, ~ 6000 Кбит/сек
Аудио: Русский, 48,0 КГц, AC3, 2 канала(ов), ~224 Кбит/сек

Доп. информация: Релиз от компании "Магнат".
Заключительный фильм трилогии «Кортик» — «Бронзовая птица» — «Последнее лето детства».




Полное имя: I:\Фильмы DVD\Наши\Последнее лето детства DVD-9\VIDEO_TS\VTS_01_1.VOB
Формат: MPEG-PS
Размер файла: 954 Мбайт
Продолжительность: 29 м.
Общий поток: 4565 Кбит/сек
Видео
Идентификатор: 224 (0xE0)
Формат: MPEG Video
Версия формата: Version 2
Профиль формата: Main@Main
Параметр BVOP формата: Да
Параметр матрицы формата: По умолчанию
Параметры GOP формата: M=3, N=12
Продолжительность: 29 м.
Вид битрейта: Переменный
Битрейт: 4251 Кбит/сек
Номинальный битрейт: 6000 Кбит/сек
Ширина: 720 пикс.
Высота: 576 пикс.
Соотношение сторон: 4:3
Частота кадров: 25,000 кадр/сек
Стандарт вещания: PAL
Цветовое пространство: YUV
Подвыборка цветности: 4:2:0
Битовая глубина: 8 бит
Тип развёртки: Чересстрочная
Порядок развёртки: Нижнее поле первое
Метод сжатия: С потерями
Бит/(Пиксели*Кадры): 0.410
Размер потока: 888 Мбайт (93%)
Аудио
Идентификатор: 128 (0x80)
Формат: AC-3
Формат/Информация: Audio Coding 3
Расширение режима: CM (complete main)
Продолжительность: 29 м.
Вид битрейта: Постоянный
Битрейт: 224 Кбит/сек
Канал(ы): 2 канала(ов)
Расположение каналов: Front: L R
Частота: 48,0 КГц
Битовая глубина: 16 бит
Метод сжатия: С потерями
Задержка видео: -80 мс.
Размер потока: 46,8 Мбайт (5%)
Меню






























Поделиться:



Скачать книги и аудио книги через торрент


Вернуться к началу
 Профиль Отправить личное сообщение  
 
   Похожие торренты   Автор   Торрент   Размер 
В этой теме нет новых непрочитанных сообщений. Последнее лето детства (3 серии из 3) [приключения, семейный, 1974] DVDRip

salma3

7 | 3

1.45 ГБ

В этой теме нет новых непрочитанных сообщений. Последнее лето / The Last Summer [Kомедия, 2019] WEB-DLRip, Dub [Пифагор]

salma3

482 | 23

1.46 ГБ

В этой теме нет новых непрочитанных сообщений. Лето в раковине / Poletje v skoljki [комедия, семейный, 1985] DVDRip, Avo

salma3

0 | 0

1.45 ГБ

В этой теме нет новых непрочитанных сообщений. Кристофер Робин / Christopher Robin [фэнтези, драма, комедия, приключения, семейный, 2018] DVD9, Dub | [Лицензия]

NTL

0 | 0

6.23 ГБ

В этой теме нет новых непрочитанных сообщений. Сладкий фильм / Sweet Movie [драма, комедия, арт-хаус, 1974] DVD9, Avo

K15

7 | 1

6.98 ГБ

В этой теме нет новых непрочитанных сообщений. Фантастические твари: Преступления Грин-де-Вальда / Fantastic Beasts: The Crimes of Grindelwald [фэнтези, приключения, семейный, 2018] DVD9+DVD5, Dub [Лицензия]

K15

0 | 0

9.2 ГБ

В этой теме нет новых непрочитанных сообщений. Арена / The Arena [Приключения, 1974] WEB-DL 1080p, Mvo

salma3

0 | 0

5.89 ГБ


Начать новую тему Ответить на тему  [ 1 сообщение ] 




Для Мосгорсуда, Роскомнадзора и рекламодателей:: rstracker[собака]yandex.ru
cron