Торрент файл
скачать торрент магнет ссылка Добавлен: 07 янв 2012, 17:54
Размер: 47.58 ГБ
Сидеров: 15
Личеров: 13
Автор

СообщениеДобавлено: 07 янв 2012, 17:54 

Не в сети
Супермодератор
Аватара пользователя
Дата регистрации:
11 апр 2010, 18:10
Спасибо: 5801 / 7
Сообщения: 56779
Звездные войны. Эпизоды 1-6 [Антология] / Star Wars. Episodes I-VI [Antology]


Звездные войны. Эпизоды I: Скрытая угроза / Star Wars. Episodes I: The Phantom Menace


Перевод:Профессиональный (полное дублирование)
Субтитры:Русские (полные и форсированные), английские (полные и форсированные), русские комментарии 1, 2
Формат:DVD9, DVD Video, MPEG2, DTS, AC3
Страна:США
Режиссер:Джордж Лукас
Жанр:фантастика, боевик, приключения
Продолжительность:02:10:36
Год выпуска:1999

В ролях:Лиам Нисон, Юэн МакГрегор, Натали Портман, Джейк Ллойд, Пернилла Аугуст, Фрэнк Оз, Иэн МакДайармид, Оливер Форд Дэвис, Рэй Парк, Хью Куарши

Описание фильма:
Мирная и процветающая планета Набу. Торговая федерация, не желая платить налоги, вступает в прямой конфликт с королевой Амидалой, правящей на планете, что приводит к войне. На стороне королевы и республики в ней участвуют два рыцаря-джедая: учитель и ученик, Квай-Гон-Джин и Оби-Ван Кеноби…


Рейтинг на IMDB: 6.4/10
Рейтинг MPAA: PG
Рейтинг на Кинопоиск.RU: 7.91

Видео:720x576 (PAL 16:9 ), MPEG 2 Video, 25,000 fps, ~ 6450 kbps avg
Аудио #1:Русский 48 kHz, DTS, 6 ch, 768 kbps avg [Профессиональный (полное дублирование)]
Аудио #2:Русский 48 kHz, Dolby AC3, 6 ch, 448 kbps avg [Профессиональный (многоголосый, закадровый, Tycoon)]
Аудио #3:Английский 48 kHz, Dolby AC3, 6 ch, 448 kbps avg [Оригинал]
Аудио #4:Английский 48 kHz, Dolby AC3, 1 ch, 96 kbps avg [комментарии 1]
Аудио #5:Английский 48 kHz, Dolby AC3, 1 ch, 96 kbps avg [комментарии 2]

Сэмпл: Ссылка

General
Complete name : E:\DVDs\STAR_WARS_BDDVD\STARWARS_6X_BDDVD9_DTS\STARWARS_EP1_BDDVD9_DTS\VIDEO_TS\VTS_01_1.VOB
Format : MPEG-PS
File size : 1 024 MiB
Duration : 14mn 30s
Overall bit rate : 9 873 Kbps

Video
ID : 224 (0xE0)
Format : MPEG Video
Format version : Version 2
Format profile : Main@Main
Format settings, BVOP : Yes
Format settings, Matrix : Custom
Duration : 14mn 30s
Bit rate mode : Variable
Bit rate : 8 000 Kbps
Width : 720 pixels
Height : 576 pixels
Display aspect ratio : 16:9
Frame rate : 25.000 fps
Standard : PAL
Color space : YUV
Chroma subsampling : 4:2:0
Bit depth : 8 bits
Scan type : Interlaced
Scan order : Top Field First
Compression mode : Lossy
Bits/(Pixel*Frame) : 0.772
Stream size : 813 MiB (79%)

Audio #1
ID : 189 (0xBD)-129 (0x81)
Format : AC-3
Format/Info : Audio Coding 3
Mode extension : CM (complete main)
Muxing mode : DVD-Video
Duration : 14mn 29s
Bit rate mode : Constant
Bit rate : 448 Kbps
Channel(s) : 6 channels
Channel positions : Front: L C R, Side: L R, LFE
Sampling rate : 48.0 KHz
Bit depth : 16 bits
Compression mode : Lossy
Stream size : 46.4 MiB (5%)

Audio #2
ID : 189 (0xBD)-130 (0x82)
Format : AC-3
Format/Info : Audio Coding 3
Mode extension : CM (complete main)
Muxing mode : DVD-Video
Duration : 14mn 29s
Bit rate mode : Constant
Bit rate : 448 Kbps
Channel(s) : 6 channels
Channel positions : Front: L C R, Side: L R, LFE
Sampling rate : 48.0 KHz
Bit depth : 16 bits
Compression mode : Lossy
Stream size : 46.4 MiB (5%)

Audio #3
ID : 189 (0xBD)-131 (0x83)
Format : AC-3
Format/Info : Audio Coding 3
Mode extension : C (commentary)
Muxing mode : DVD-Video
Duration : 14mn 29s
Bit rate mode : Constant
Bit rate : 96.0 Kbps
Channel(s) : 1 channel
Channel positions : Front: C
Sampling rate : 48.0 KHz
Bit depth : 16 bits
Compression mode : Lossy
Stream size : 9.95 MiB (1%)

Audio #4
ID : 189 (0xBD)-132 (0x84)
Format : AC-3
Format/Info : Audio Coding 3
Mode extension : C (commentary)
Muxing mode : DVD-Video
Duration : 14mn 29s
Bit rate mode : Constant
Bit rate : 96.0 Kbps
Channel(s) : 1 channel
Channel positions : Front: C
Sampling rate : 48.0 KHz
Bit depth : 16 bits
Compression mode : Lossy
Stream size : 9.95 MiB (1%)

Audio #5
ID : 189 (0xBD)-136 (0x88)
Format : DTS
Format/Info : Digital Theater Systems
Muxing mode : DVD-Video
Duration : 14mn 29s
Bit rate mode : Constant
Bit rate : 755 Kbps
Channel(s) : 6 channels
Channel positions : Front: L C R, Side: L R, LFE
Sampling rate : 48.0 KHz
Bit depth : 24 bits
Compression mode : Lossy
Stream size : 78.2 MiB (8%)

Text #1
ID : 189 (0xBD)-32 (0x20)
Format : RLE
Format/Info : Run-length encoding
Muxing mode : DVD-Video

Text #2
ID : 189 (0xBD)-33 (0x21)
Format : RLE
Format/Info : Run-length encoding
Muxing mode : DVD-Video

Text #3
ID : 189 (0xBD)-34 (0x22)
Format : RLE
Format/Info : Run-length encoding
Muxing mode : DVD-Video
Duration : 14mn 28s

Text #4
ID : 189 (0xBD)-35 (0x23)
Format : RLE
Format/Info : Run-length encoding
Muxing mode : DVD-Video
Duration : 14mn 29s

Text #5
ID : 189 (0xBD)-36 (0x24)
Format : RLE
Format/Info : Run-length encoding
Muxing mode : DVD-Video

Text #6
ID : 189 (0xBD)-37 (0x25)
Format : RLE
Format/Info : Run-length encoding
Muxing mode : DVD-Video

Menu
Title: DATA_2
Size: 7.94 Gb ( 8 328 898 KBytes ) - DVD-9
Enabled regions: 1, 2, 3, 4, 5, 6, 7, 8

VTS_01 :
Play Length: 02:10:36
Video: PAL 16:9 (720x576) VBR, Auto Letterboxed
Audio:
Russian (DTS, 6 ch)
Russian (Dolby AC3, 6 ch)
English (Dolby AC3, 6 ch)
English (Dolby AC3, 1 ch)
English (Dolby AC3, 1 ch)
Subtitles:
Russian
English
Russian
Russian
Russian
English












Звездные войны. Эпизоды II: Атака клонов / Star Wars. Episodes II: Attack of the Clones


Перевод:Профессиональный (полное дублирование)
Субтитры:Русские (полные и форсированные), английские (полные и форсированные), русские комментарии 1, 2
Формат:DVD9, DVD Video, MPEG2, DTS, AC3
Страна:США
Режиссер:Джордж Лукас
Жанр:фантастика, боевик, приключения
Продолжительность:02:16:37
Год выпуска:2002

В ролях:Юэн МакГрегор, Натали Портман, Хейден Кристенсен, Кристофер Ли, Сэмюэл Л. Джексон, Фрэнк Оз, Иэн МакДайармид, Пернилла Аугуст, Темуэра Моррисон, Дэниэл Логан

Описание фильма:
Действие разворачивается через 10 лет после событий, описанных в первом эпизоде знаменитой саги. Республика все глубже погружается в пучину противоречий и хаоса. Движение сепаратистов, представленное сотнями планет и могущественным альянсом корпораций, грозит стать новой угрозой для Галактики, с которой не смогут справиться даже джедаи.


Рейтинг на IMDB: 6.8/10
Рейтинг MPAA: PG
Рейтинг на Кинопоиск.RU: 7.78

Видео:720x576 (PAL 16:9 ), MPEG 2 Video, 25,000 fps, ~ 6150 kbps avg
Аудио #1:Русский 48 kHz, DTS, 6 ch, 768 kbps avg [Профессиональный (полное дублирование)]
Аудио #2:Русский 48 kHz, Dolby AC3, 6 ch, 448 kbps avg [Профессиональный (многоголосый, закадровый, Tycoon)]
Аудио #3:Английский 48 kHz, Dolby AC3, 6 ch, 448 kbps avg [Оригинал]
Аудио #4:Английский 48 kHz, Dolby AC3, 1 ch, 96 kbps avg [комментарии 1]
Аудио #5:Английский 48 kHz, Dolby AC3, 1 ch, 96 kbps avg [комментарии 2]

Сэмпл: Ссылка

General
Complete name : E:\DVDs\STAR_WARS_BDDVD\STARWARS_6X_BDDVD9_DTS\STARWARS_EP2_BDDVD9_DTS\VIDEO_TS\VTS_01_1.VOB
Format : MPEG-PS
File size : 1 024 MiB
Duration : 14mn 49s
Overall bit rate : 9 653 Kbps

Video
ID : 224 (0xE0)
Format : MPEG Video
Format version : Version 2
Format profile : Main@Main
Format settings, BVOP : Yes
Format settings, Matrix : Custom
Duration : 14mn 49s
Bit rate mode : Variable
Bit rate : 7 619 Kbps
Nominal bit rate : 8 000 Kbps
Width : 720 pixels
Height : 576 pixels
Display aspect ratio : 16:9
Frame rate : 25.000 fps
Standard : PAL
Color space : YUV
Chroma subsampling : 4:2:0
Bit depth : 8 bits
Scan type : Interlaced
Scan order : Top Field First
Compression mode : Lossy
Bits/(Pixel*Frame) : 0.735
Stream size : 808 MiB (79%)

Audio #1
ID : 189 (0xBD)-129 (0x81)
Format : AC-3
Format/Info : Audio Coding 3
Mode extension : CM (complete main)
Muxing mode : DVD-Video
Duration : 14mn 49s
Bit rate mode : Constant
Bit rate : 448 Kbps
Channel(s) : 6 channels
Channel positions : Front: L C R, Side: L R, LFE
Sampling rate : 48.0 KHz
Bit depth : 16 bits
Compression mode : Lossy
Stream size : 47.5 MiB (5%)

Audio #2
ID : 189 (0xBD)-130 (0x82)
Format : AC-3
Format/Info : Audio Coding 3
Mode extension : CM (complete main)
Muxing mode : DVD-Video
Duration : 14mn 49s
Bit rate mode : Constant
Bit rate : 448 Kbps
Channel(s) : 6 channels
Channel positions : Front: L C R, Side: L R, LFE
Sampling rate : 48.0 KHz
Bit depth : 16 bits
Compression mode : Lossy
Stream size : 47.5 MiB (5%)

Audio #3
ID : 189 (0xBD)-131 (0x83)
Format : AC-3
Format/Info : Audio Coding 3
Mode extension : C (commentary)
Muxing mode : DVD-Video
Duration : 14mn 49s
Bit rate mode : Constant
Bit rate : 96.0 Kbps
Channel(s) : 1 channel
Channel positions : Front: C
Sampling rate : 48.0 KHz
Bit depth : 16 bits
Compression mode : Lossy
Stream size : 10.2 MiB (1%)

Audio #4
ID : 189 (0xBD)-132 (0x84)
Format : AC-3
Format/Info : Audio Coding 3
Mode extension : C (commentary)
Muxing mode : DVD-Video
Duration : 14mn 49s
Bit rate mode : Constant
Bit rate : 96.0 Kbps
Channel(s) : 1 channel
Channel positions : Front: C
Sampling rate : 48.0 KHz
Bit depth : 16 bits
Compression mode : Lossy
Stream size : 10.2 MiB (1%)

Audio #5
ID : 189 (0xBD)-136 (0x88)
Format : DTS
Format/Info : Digital Theater Systems
Muxing mode : DVD-Video
Duration : 14mn 49s
Bit rate mode : Constant
Bit rate : 755 Kbps
Channel(s) : 6 channels
Channel positions : Front: L C R, Side: L R, LFE
Sampling rate : 48.0 KHz
Bit depth : 24 bits
Compression mode : Lossy
Stream size : 80.0 MiB (8%)

Text #1
ID : 189 (0xBD)-32 (0x20)
Format : RLE
Format/Info : Run-length encoding
Muxing mode : DVD-Video

Text #2
ID : 189 (0xBD)-33 (0x21)
Format : RLE
Format/Info : Run-length encoding
Muxing mode : DVD-Video

Text #3
ID : 189 (0xBD)-34 (0x22)
Format : RLE
Format/Info : Run-length encoding
Muxing mode : DVD-Video
Duration : 14mn 49s

Text #4
ID : 189 (0xBD)-35 (0x23)
Format : RLE
Format/Info : Run-length encoding
Muxing mode : DVD-Video
Duration : 14mn 48s

Text #5
ID : 189 (0xBD)-36 (0x24)
Format : RLE
Format/Info : Run-length encoding
Muxing mode : DVD-Video

Text #6
ID : 189 (0xBD)-37 (0x25)
Format : RLE
Format/Info : Run-length encoding
Muxing mode : DVD-Video

Menu
Title: DATA_2
Size: 7.93 Gb ( 8 319 856 KBytes ) - DVD-9
Enabled regions: 1, 2, 3, 4, 5, 6, 7, 8

VTS_01 :
Play Length: 02:16:37
Video: PAL 16:9 (720x576) VBR, Auto Letterboxed
Audio:
Russian (DTS, 6 ch)
Russian (Dolby AC3, 6 ch)
English (Dolby AC3, 6 ch)
English (Dolby AC3, 1 ch)
English (Dolby AC3, 1 ch)
Subtitles:
Russian
English
Russian
Russian
Russian
English












Звездные войны. Эпизоды III: Месть Ситхов / Star Wars. Episodes III: Revenge of the Sith


Перевод:Профессиональный (полное дублирование)
Субтитры:Русские (полные), английские (полные), русские комментарии 1, 2
Формат:DVD9, DVD Video, MPEG2, DTS, AC3
Страна:США
Режиссер:Джордж Лукас
Жанр:фантастика, боевик, приключения
Продолжительность:02:14:21
Год выпуска:2005

В ролях:Юэн МакГрегор, Натали Портман, Хейден Кристенсен, Иэн МакДайармид, Сэмюэл Л. Джексон, Джимми Смитс, Фрэнк Оз, Энтони Дэниелс, Кристофер Ли, Киша Касл-Хьюз

Описание фильма:
Со времен, описанных во втором эпизоде, прошло 3 года. Энакин окончательно встает на темную сторону силы и превращается в Дарта Вейдера. Республика гибнет под ударами крепнущей Империи, Джедаи теряют контроль над галактикой, а Падме готовится к тому, чтобы стать матерью. Все эти события будут разворачиваться на фоне грандиозной битвы, знаменующей финал Клонических войн…


Рейтинг на IMDB: 7.8/10
Рейтинг MPAA: PG-13
Рейтинг на Кинопоиск.RU: 8.02

Видео:720x576 (PAL 16:9 ), MPEG 2 Video, 25,000 fps, ~ 6250 kbps avg
Аудио #1:Русский 48 kHz, DTS, 6 ch, 768 kbps avg [Профессиональный (полное дублирование)]
Аудио #2:Русский 48 kHz, Dolby AC3, 6 ch, 448 kbps avg [Профессиональный (многоголосый, закадровый, Tycoon)]
Аудио #3:Английский 48 kHz, Dolby AC3, 6 ch, 448 kbps avg [Оригинал]
Аудио #4:Английский 48 kHz, Dolby AC3, 1 ch, 96 kbps avg [комментарии 1]
Аудио #5:Английский 48 kHz, Dolby AC3, 1 ch, 96 kbps avg [комментарии 2]

Сэмпл: Ссылка

General
Complete name : E:\DVDs\STAR_WARS_BDDVD\STARWARS_6X_BDDVD9_DTS\STARWARS_EP3_BDDVD9_DTS\VIDEO_TS\VTS_01_1.VOB
Format : MPEG-PS
File size : 1 024 MiB
Duration : 12mn 34s
Overall bit rate : 11.4 Mbps

Video
ID : 224 (0xE0)
Format : MPEG Video
Format version : Version 2
Format profile : Main@Main
Format settings, BVOP : Yes
Format settings, Matrix : Custom
Duration : 12mn 34s
Bit rate mode : Variable
Bit rate : 9 315 Kbps
Nominal bit rate : 8 000 Kbps
Width : 720 pixels
Height : 576 pixels
Display aspect ratio : 16:9
Frame rate : 25.000 fps
Standard : PAL
Color space : YUV
Chroma subsampling : 4:2:0
Bit depth : 8 bits
Scan type : Interlaced
Scan order : Top Field First
Compression mode : Lossy
Bits/(Pixel*Frame) : 0.898
Stream size : 838 MiB (82%)

Audio #1
ID : 189 (0xBD)-129 (0x81)
Format : AC-3
Format/Info : Audio Coding 3
Mode extension : CM (complete main)
Muxing mode : DVD-Video
Duration : 12mn 34s
Bit rate mode : Constant
Bit rate : 448 Kbps
Channel(s) : 6 channels
Channel positions : Front: L C R, Side: L R, LFE
Sampling rate : 48.0 KHz
Bit depth : 16 bits
Compression mode : Lossy
Stream size : 40.3 MiB (4%)

Audio #2
ID : 189 (0xBD)-130 (0x82)
Format : AC-3
Format/Info : Audio Coding 3
Mode extension : CM (complete main)
Muxing mode : DVD-Video
Duration : 12mn 34s
Bit rate mode : Constant
Bit rate : 448 Kbps
Channel(s) : 6 channels
Channel positions : Front: L C R, Side: L R, LFE
Sampling rate : 48.0 KHz
Bit depth : 16 bits
Compression mode : Lossy
Stream size : 40.3 MiB (4%)

Audio #3
ID : 189 (0xBD)-131 (0x83)
Format : AC-3
Format/Info : Audio Coding 3
Mode extension : C (commentary)
Muxing mode : DVD-Video
Duration : 12mn 34s
Bit rate mode : Constant
Bit rate : 96.0 Kbps
Channel(s) : 1 channel
Channel positions : Front: C
Sampling rate : 48.0 KHz
Bit depth : 16 bits
Compression mode : Lossy
Stream size : 8.63 MiB (1%)

Audio #4
ID : 189 (0xBD)-132 (0x84)
Format : AC-3
Format/Info : Audio Coding 3
Mode extension : C (commentary)
Muxing mode : DVD-Video
Duration : 12mn 34s
Bit rate mode : Constant
Bit rate : 96.0 Kbps
Channel(s) : 1 channel
Channel positions : Front: C
Sampling rate : 48.0 KHz
Bit depth : 16 bits
Compression mode : Lossy
Stream size : 8.63 MiB (1%)

Audio #5
ID : 189 (0xBD)-136 (0x88)
Format : DTS
Format/Info : Digital Theater Systems
Muxing mode : DVD-Video
Duration : 12mn 34s
Bit rate mode : Constant
Bit rate : 755 Kbps
Channel(s) : 6 channels
Channel positions : Front: L C R, Side: L R, LFE
Sampling rate : 48.0 KHz
Bit depth : 24 bits
Compression mode : Lossy
Stream size : 67.8 MiB (7%)

Text #1
ID : 189 (0xBD)-32 (0x20)
Format : RLE
Format/Info : Run-length encoding
Muxing mode : DVD-Video
Duration : 12mn 34s

Text #2
ID : 189 (0xBD)-33 (0x21)
Format : RLE
Format/Info : Run-length encoding
Muxing mode : DVD-Video
Duration : 12mn 34s

Text #3
ID : 189 (0xBD)-34 (0x22)
Format : RLE
Format/Info : Run-length encoding
Muxing mode : DVD-Video

Menu
Title: DATA_2
Size: 7.93 Gb ( 8 315 706 KBytes ) - DVD-9
Enabled regions: 1, 2, 3, 4, 5, 6, 7, 8

VTS_01 :
Play Length: 02:14:21
Video: PAL 16:9 (720x576) VBR, Auto Letterboxed
Audio:
Russian (DTS, 6 ch)
Russian (Dolby AC3, 6 ch)
English (Dolby AC3, 6 ch)
English (Dolby AC3, 1 ch)
English (Dolby AC3, 1 ch)
Subtitles:
Russian
English
Russian
Russian












Звездные войны. Эпизод IV: Новая надежда / Star Wars. Episodes IV: A New Hope


Перевод:Профессиональный (полное дублирование)
Субтитры:Русские (полные и форсированные), английские (полные и форсированные), русские комментарии 1, 2
Формат:DVD9, DVD Video, MPEG2, DTS, AC3
Страна:США
Режиссер:Джордж Лукас
Жанр:фантастика, боевик, приключения
Продолжительность:01:59:38
Год выпуска:1977

В ролях:Марк Хэмилл, Харрисон Форд, Кэрри Фишер,Питер Кашинг, Алек Гиннесс, Энтони Дэниелс, Кенни Бейкер, Питер Мейхью, Дэвид Праус, Джеймс Эрл Джонс

Описание фильма:
Татуин. Планета-пустыня. Уже постаревший рыцарь Джедай Оби Ван Кеноби спасает молодого Люка Скайуокера, когда тот пытается отыскать пропавшего дроида. С этого момента Люк осознает свое истинное назначение: он один из рыцарей Джедай. В то время как гражданская война охватила галактику, а войска повстанцев ведут бои против сил злого Императора, к Люку и Оби Вану присоединяется отчаянный пилот-наемник Хан Соло, и в сопровождении двух дроидов, R2D2 и C-3PO, этот необычный отряд отправляется на поиски предводителя повстанцев — принцессы Леи. Героям предстоит отчаянная схватка с устрашающим Дартом Вейдером — правой рукой Императора и его секретным оружием — «Звездой Смерти».


Рейтинг на IMDB: 8.8/10
Рейтинг MPAA: PG
Рейтинг на Кинопоиск.RU: 7.97

Видео:720x576 (PAL 16:9 ), MPEG 2 Video, 25,000 fps, ~ 7050 kbps avg
Аудио #1:Русский 48 kHz, DTS, 6 ch, 768 kbps avg [Профессиональный (полное дублирование)]
Аудио #2:Русский 48 kHz, Dolby AC3, 2 ch, 192 kbps avg [Профессиональный (полное дублирование) (ОРТ)]
Аудио #3:Русский 48 kHz, Dolby AC3, 6 ch, 448 kbps avg [Профессиональный (многоголосый, закадровый, Tycoon)]
Аудио #4:Английский 48 kHz, Dolby AC3, 6 ch, 448 kbps avg [Оригинал]
Аудио #5:Английский 48 kHz, Dolby AC3, 1 ch, 96 kbps avg [комментарии 1]
Аудио #6:Английский 48 kHz, Dolby AC3, 1 ch, 96 kbps avg [комментарии 2]

Сэмпл: Ссылка

General
Complete name : E:\DVDs\STAR_WARS_BDDVD\STARWARS_6X_BDDVD9_DTS\STARWARS_EP4_BDDVD9_DTS\VIDEO_TS\VTS_01_1.VOB
Format : MPEG-PS
File size : 1 024 MiB
Duration : 13mn 20s
Overall bit rate : 10.7 Mbps

Video
ID : 224 (0xE0)
Format : MPEG Video
Format version : Version 2
Format profile : Main@Main
Format settings, BVOP : Yes
Format settings, Matrix : Custom
Duration : 13mn 20s
Bit rate mode : Variable
Bit rate : 8 488 Kbps
Nominal bit rate : 7 800 Kbps
Width : 720 pixels
Height : 576 pixels
Display aspect ratio : 16:9
Frame rate : 25.000 fps
Standard : PAL
Color space : YUV
Chroma subsampling : 4:2:0
Bit depth : 8 bits
Scan type : Interlaced
Scan order : Top Field First
Compression mode : Lossy
Bits/(Pixel*Frame) : 0.819
Stream size : 810 MiB (79%)

Audio #1
ID : 189 (0xBD)-129 (0x81)
Format : AC-3
Format/Info : Audio Coding 3
Mode extension : CM (complete main)
Muxing mode : DVD-Video
Duration : 13mn 19s
Bit rate mode : Constant
Bit rate : 192 Kbps
Channel(s) : 2 channels
Channel positions : Front: L R
Sampling rate : 48.0 KHz
Bit depth : 16 bits
Compression mode : Lossy
Stream size : 18.3 MiB (2%)

Audio #2
ID : 189 (0xBD)-130 (0x82)
Format : AC-3
Format/Info : Audio Coding 3
Mode extension : CM (complete main)
Muxing mode : DVD-Video
Duration : 13mn 19s
Bit rate mode : Constant
Bit rate : 448 Kbps
Channel(s) : 6 channels
Channel positions : Front: L C R, Side: L R, LFE
Sampling rate : 48.0 KHz
Bit depth : 16 bits
Compression mode : Lossy
Stream size : 42.7 MiB (4%)

Audio #3
ID : 189 (0xBD)-131 (0x83)
Format : AC-3
Format/Info : Audio Coding 3
Mode extension : CM (complete main)
Muxing mode : DVD-Video
Duration : 13mn 19s
Bit rate mode : Constant
Bit rate : 448 Kbps
Channel(s) : 6 channels
Channel positions : Front: L C R, Side: L R, LFE
Sampling rate : 48.0 KHz
Bit depth : 16 bits
Compression mode : Lossy
Stream size : 42.7 MiB (4%)

Audio #4
ID : 189 (0xBD)-132 (0x84)
Format : AC-3
Format/Info : Audio Coding 3
Mode extension : C (commentary)
Muxing mode : DVD-Video
Duration : 13mn 20s
Bit rate mode : Constant
Bit rate : 96.0 Kbps
Channel(s) : 1 channel
Channel positions : Front: C
Sampling rate : 48.0 KHz
Bit depth : 16 bits
Compression mode : Lossy
Stream size : 9.16 MiB (1%)

Audio #5
ID : 189 (0xBD)-133 (0x85)
Format : AC-3
Format/Info : Audio Coding 3
Mode extension : C (commentary)
Muxing mode : DVD-Video
Duration : 13mn 20s
Bit rate mode : Constant
Bit rate : 96.0 Kbps
Channel(s) : 1 channel
Channel positions : Front: C
Sampling rate : 48.0 KHz
Bit depth : 16 bits
Compression mode : Lossy
Stream size : 9.16 MiB (1%)

Audio #6
ID : 189 (0xBD)-136 (0x88)
Format : DTS
Format/Info : Digital Theater Systems
Muxing mode : DVD-Video
Duration : 13mn 19s
Bit rate mode : Constant
Bit rate : 755 Kbps
Channel(s) : 6 channels
Channel positions : Front: L C R, Side: L R, LFE
Sampling rate : 48.0 KHz
Bit depth : 24 bits
Compression mode : Lossy
Stream size : 71.9 MiB (7%)

Text #1
ID : 189 (0xBD)-32 (0x20)
Format : RLE
Format/Info : Run-length encoding
Muxing mode : DVD-Video

Text #2
ID : 189 (0xBD)-33 (0x21)
Format : RLE
Format/Info : Run-length encoding
Muxing mode : DVD-Video

Text #3
ID : 189 (0xBD)-36 (0x24)
Format : RLE
Format/Info : Run-length encoding
Muxing mode : DVD-Video

Text #4
ID : 189 (0xBD)-37 (0x25)
Format : RLE
Format/Info : Run-length encoding
Muxing mode : DVD-Video

Menu
Title: DATA_2
Size: 7.93 Gb ( 8 310 426 KBytes ) - DVD-9
Enabled regions: 1, 2, 3, 4, 5, 6, 7, 8

VTS_01 :
Play Length: 01:59:38
Video: PAL 16:9 (720x576) VBR, Auto Letterboxed
Audio:
Russian (DTS, 6 ch)
Russian (Dolby AC3, 2 ch)
Russian (Dolby AC3, 6 ch)
English (Dolby AC3, 6 ch)
English (Dolby AC3, 1 ch)
English (Dolby AC3, 1 ch)
Subtitles:
Russian
English
Russian
Russian
Russian
English












Звездные войны. Эпизод V: Империя наносит ответный удар / Star Wars. Episodes V: The Empire Strikes Back


Перевод:Профессиональный (полное дублирование)
Субтитры:Русские (полные), английские (полные), русские комментарии 1, 2
Формат:DVD9, DVD Video, MPEG2, DTS, AC3
Страна:США
Режиссер:Ирвин Кершнер
Жанр:фантастика, боевик, приключения
Продолжительность:02:02:08
Год выпуска:1980

В ролях:Марк Хэмилл, Харрисон Форд, Кэрри Фишер, Билли Ди Уильямс, Энтони Дэниелс, Дэвид Праус, Питер Мейхью, Кенни Бейкер, Фрэнк Оз, Алек Гиннесс

Описание фильма:
Борьба за Галактику обостряется в пятом эпизоде космической саги. Войска Императора начинают массированную атаку на повстанцев и их союзников.
Хан Соло и принцесса Лейя укрываются в Заоблачном Городе, в котором их и захватывает Дарт Вейдер, в то время как Люк Скайуокер находится на таинственной планете джунглей Дагобар.
Там Мастер — джедай Йода обучает молодого рыцаря навыкам обретения Силы. Люк даже не предполагает, как скоро ему придется воспользоваться знаниями старого Мастера: впереди битва с превосходящими силами Императора и смертельный поединок с Дартом Вейдером.


Рейтинг на IMDB: 8.8/10
Рейтинг MPAA: PG
Рейтинг на Кинопоиск.RU: 7.99

Видео:720x576 (PAL 16:9 ), MPEG 2 Video, 25,000 fps, ~ 6850 kbps avg
Аудио #1:Русский 48 kHz, DTS, 6 ch, 768 kbps avg [Профессиональный (полное дублирование)]
Аудио #2:Русский 48 kHz, Dolby AC3, 2 ch, 192 kbps avg Профессиональный (полное дублирование) (ОРТ)]
Аудио #3:Русский 48 kHz, Dolby AC3, 6 ch, 448 kbps avg [Профессиональный (многоголосый, закадровый, Tycoon)]
Аудио #4:Английский 48 kHz, Dolby AC3, 6 ch, 448 kbps avg [Оригинал]
Аудио #5:Английский 48 kHz, Dolby AC3, 1 ch, 96 kbps avg [комментарии 1]
Аудио #6:Английский 48 kHz, Dolby AC3, 1 ch, 96 kbps avg [комментарии 2]

Сэмпл: Ссылка

General
Complete name : E:\DVDs\STAR_WARS_BDDVD\STARWARS_6X_BDDVD9_DTS\STARWARS_EP5_BDDVD9_DTS\VIDEO_TS\VTS_01_1.VOB
Format : MPEG-PS
File size : 1 024 MiB
Duration : 12mn 49s
Overall bit rate : 11.2 Mbps

Video
ID : 224 (0xE0)
Format : MPEG Video
Format version : Version 2
Format profile : Main@Main
Format settings, BVOP : Yes
Format settings, Matrix : Custom
Duration : 12mn 49s
Bit rate mode : Variable
Bit rate : 8 908 Kbps
Nominal bit rate : 7 800 Kbps
Width : 720 pixels
Height : 576 pixels
Display aspect ratio : 16:9
Frame rate : 25.000 fps
Standard : PAL
Color space : YUV
Chroma subsampling : 4:2:0
Bit depth : 8 bits
Scan type : Interlaced
Scan order : Top Field First
Compression mode : Lossy
Bits/(Pixel*Frame) : 0.859
Stream size : 817 MiB (80%)

Audio #1
ID : 189 (0xBD)-129 (0x81)
Format : AC-3
Format/Info : Audio Coding 3
Mode extension : CM (complete main)
Muxing mode : DVD-Video
Duration : 12mn 49s
Bit rate mode : Constant
Bit rate : 192 Kbps
Channel(s) : 2 channels
Channel positions : Front: L R
Sampling rate : 48.0 KHz
Bit depth : 16 bits
Compression mode : Lossy
Stream size : 17.6 MiB (2%)

Audio #2
ID : 189 (0xBD)-130 (0x82)
Format : AC-3
Format/Info : Audio Coding 3
Mode extension : CM (complete main)
Muxing mode : DVD-Video
Duration : 12mn 49s
Bit rate mode : Constant
Bit rate : 448 Kbps
Channel(s) : 6 channels
Channel positions : Front: L C R, Side: L R, LFE
Sampling rate : 48.0 KHz
Bit depth : 16 bits
Compression mode : Lossy
Stream size : 41.1 MiB (4%)

Audio #3
ID : 189 (0xBD)-131 (0x83)
Format : AC-3
Format/Info : Audio Coding 3
Mode extension : CM (complete main)
Muxing mode : DVD-Video
Duration : 12mn 49s
Bit rate mode : Constant
Bit rate : 448 Kbps
Channel(s) : 6 channels
Channel positions : Front: L C R, Side: L R, LFE
Sampling rate : 48.0 KHz
Bit depth : 16 bits
Compression mode : Lossy
Stream size : 41.1 MiB (4%)

Audio #4
ID : 189 (0xBD)-132 (0x84)
Format : AC-3
Format/Info : Audio Coding 3
Mode extension : C (commentary)
Muxing mode : DVD-Video
Duration : 12mn 49s
Bit rate mode : Constant
Bit rate : 96.0 Kbps
Channel(s) : 1 channel
Channel positions : Front: C
Sampling rate : 48.0 KHz
Bit depth : 16 bits
Compression mode : Lossy
Stream size : 8.80 MiB (1%)

Audio #5
ID : 189 (0xBD)-133 (0x85)
Format : AC-3
Format/Info : Audio Coding 3
Mode extension : C (commentary)
Muxing mode : DVD-Video
Duration : 12mn 49s
Bit rate mode : Constant
Bit rate : 96.0 Kbps
Channel(s) : 1 channel
Channel positions : Front: C
Sampling rate : 48.0 KHz
Bit depth : 16 bits
Compression mode : Lossy
Stream size : 8.80 MiB (1%)

Audio #6
ID : 189 (0xBD)-136 (0x88)
Format : DTS
Format/Info : Digital Theater Systems
Muxing mode : DVD-Video
Duration : 12mn 49s
Bit rate mode : Constant
Bit rate : 755 Kbps
Channel(s) : 6 channels
Channel positions : Front: L C R, Side: L R, LFE
Sampling rate : 48.0 KHz
Bit depth : 24 bits
Compression mode : Lossy
Stream size : 69.2 MiB (7%)

Text #1
ID : 189 (0xBD)-32 (0x20)
Format : RLE
Format/Info : Run-length encoding
Muxing mode : DVD-Video

Text #2
ID : 189 (0xBD)-33 (0x21)
Format : RLE
Format/Info : Run-length encoding
Muxing mode : DVD-Video

Text #3
ID : 189 (0xBD)-34 (0x22)
Format : RLE
Format/Info : Run-length encoding
Muxing mode : DVD-Video

Text #4
ID : 189 (0xBD)-35 (0x23)
Format : RLE
Format/Info : Run-length encoding
Muxing mode : DVD-Video

Menu
Title: DATA_2
Size: 7.92 Gb ( 8 303 606 KBytes ) - DVD-9
Enabled regions: 1, 2, 3, 4, 5, 6, 7, 8

VTS_01 :
Play Length: 02:02:08
Video: PAL 16:9 (720x576) VBR, Auto Letterboxed
Audio:
Russian (DTS, 6 ch)
Russian (Dolby AC3, 2 ch)
Russian (Dolby AC3, 6 ch)
English (Dolby AC3, 6 ch)
English (Dolby AC3, 1 ch)
English (Dolby AC3, 1 ch)
Subtitles:
Russian
English
Russian
Russian












Звездные войны. Эпизод VI: Возвращение Джедая / Star Wars. Episodes VI: Return Of The Jedi


Перевод:Профессиональный (полное дублирование)
Субтитры:Русские (полные и форсированные), английские (полные и форсированные), русские комментарии 1, 2
Формат:DVD9, DVD Video, MPEG2, DTS, AC3
Страна:США
Режиссер:Ричард Маркуэнд
Жанр:фантастика, боевик, приключения
Продолжительность:02:09:16
Год выпуска:1983

В ролях:Марк Хэмилл, Харрисон Форд, Кэрри Фишер, Билли Ди Уильямс, Энтони Дэниелс, Питер Мейхью, Себастьян Шоу, Иэн МакДайармид, Фрэнк Оз, Джеймс Эрл Джонс

Описание фильма:
В заключительном шестом эпизоде «Звездных войн» Дарт Вейдер создает вторую «Звезду Смерти». Он объединяет все силы зла, чтобы с помощью этого смертоносного оружия нанести последний сокрушительный удар по повстанцам и их союзникам.
Люк Скайуокер вместе с принцессой Лейей и верными дроидами R2D2 и C-3PO отправляется спасать своего друга Хана Соло, который пропал в плен к отвратительному Джаббе Хатту — могущественному повелителю преступников.
Повстанцы высаживаются на планету Эндор, чтобы оттуда вместе с Люком и его отрядом предпринять последнюю атаку на Имперский флот, атаку, от которой зависит судьба Галактики. В этом эпизоде Люк Скайуокер и Дарт Вейдер встречаются в последний раз… ибо из поединка между отцом и сыном живым выйдет только один…


Рейтинг на IMDB: 8.3/10
Рейтинг MPAA: PG
Рейтинг на Кинопоиск.RU: 8.01

Видео:720x576 (PAL 16:9 ), MPEG 2 Video, 25,000 fps, ~ 6400 kbps avg
Аудио #1:Русский 48 kHz, DTS, 6 ch, 768 kbps avg [Профессиональный (полное дублирование)]
Аудио #2:Русский 48 kHz, Dolby AC3, 2 ch, 192 kbps avg [Профессиональный (полное дублирование) (ОРТ)]
Аудио #3:Русский 48 kHz, Dolby AC3, 6 ch, 448 kbps avg [Профессиональный (многоголосый, закадровый, Tycoon)]
Аудио #4:Английский 48 kHz, Dolby AC3, 6 ch, 448 kbps avg [Оригинал]
Аудио #5:Английский 48 kHz, Dolby AC3, 1 ch, 96 kbps avg [комментарии 1]
Аудио #6:Английский 48 kHz, Dolby AC3, 1 ch, 96 kbps avg [комментарии 2]

Сэмпл: Ссылка

General
Complete name : E:\DVDs\STAR_WARS_BDDVD\STARWARS_6X_BDDVD9_DTS\STARWARS_EP6_BDDVD9_DTS\VIDEO_TS\VTS_01_1.VOB
Format : MPEG-PS
File size : 1 024 MiB
Duration : 13mn 32s
Overall bit rate : 10.6 Mbps

Video
ID : 224 (0xE0)
Format : MPEG Video
Format version : Version 2
Format profile : Main@Main
Format settings, BVOP : Yes
Format settings, Matrix : Custom
Duration : 13mn 32s
Bit rate mode : Variable
Bit rate : 8 331 Kbps
Nominal bit rate : 7 800 Kbps
Width : 720 pixels
Height : 576 pixels
Display aspect ratio : 16:9
Frame rate : 25.000 fps
Standard : PAL
Color space : YUV
Chroma subsampling : 4:2:0
Bit depth : 8 bits
Scan type : Interlaced
Scan order : Top Field First
Compression mode : Lossy
Bits/(Pixel*Frame) : 0.804
Stream size : 807 MiB (79%)

Audio #1
ID : 189 (0xBD)-129 (0x81)
Format : AC-3
Format/Info : Audio Coding 3
Mode extension : CM (complete main)
Muxing mode : DVD-Video
Duration : 13mn 31s
Bit rate mode : Constant
Bit rate : 192 Kbps
Channel(s) : 2 channels
Channel positions : Front: L R
Sampling rate : 48.0 KHz
Bit depth : 16 bits
Compression mode : Lossy
Stream size : 18.6 MiB (2%)

Audio #2
ID : 189 (0xBD)-130 (0x82)
Format : AC-3
Format/Info : Audio Coding 3
Mode extension : CM (complete main)
Muxing mode : DVD-Video
Duration : 13mn 31s
Bit rate mode : Constant
Bit rate : 448 Kbps
Channel(s) : 6 channels
Channel positions : Front: L C R, Side: L R, LFE
Sampling rate : 48.0 KHz
Bit depth : 16 bits
Compression mode : Lossy
Stream size : 43.4 MiB (4%)

Audio #3
ID : 189 (0xBD)-131 (0x83)
Format : AC-3
Format/Info : Audio Coding 3
Mode extension : CM (complete main)
Muxing mode : DVD-Video
Duration : 13mn 31s
Bit rate mode : Constant
Bit rate : 448 Kbps
Channel(s) : 6 channels
Channel positions : Front: L C R, Side: L R, LFE
Sampling rate : 48.0 KHz
Bit depth : 16 bits
Compression mode : Lossy
Stream size : 43.4 MiB (4%)

Audio #4
ID : 189 (0xBD)-132 (0x84)
Format : AC-3
Format/Info : Audio Coding 3
Mode extension : C (commentary)
Muxing mode : DVD-Video
Duration : 13mn 32s
Bit rate mode : Constant
Bit rate : 96.0 Kbps
Channel(s) : 1 channel
Channel positions : Front: C
Sampling rate : 48.0 KHz
Bit depth : 16 bits
Compression mode : Lossy
Stream size : 9.29 MiB (1%)

Audio #5
ID : 189 (0xBD)-133 (0x85)
Format : AC-3
Format/Info : Audio Coding 3
Mode extension : C (commentary)
Muxing mode : DVD-Video
Duration : 13mn 32s
Bit rate mode : Constant
Bit rate : 96.0 Kbps
Channel(s) : 1 channel
Channel positions : Front: C
Sampling rate : 48.0 KHz
Bit depth : 16 bits
Compression mode : Lossy
Stream size : 9.29 MiB (1%)

Audio #6
ID : 189 (0xBD)-136 (0x88)
Format : DTS
Format/Info : Digital Theater Systems
Muxing mode : DVD-Video
Duration : 13mn 31s
Bit rate mode : Constant
Bit rate : 755 Kbps
Channel(s) : 6 channels
Channel positions : Front: L C R, Side: L R, LFE
Sampling rate : 48.0 KHz
Bit depth : 24 bits
Compression mode : Lossy
Stream size : 73.0 MiB (7%)

Text #1
ID : 189 (0xBD)-32 (0x20)
Format : RLE
Format/Info : Run-length encoding
Muxing mode : DVD-Video

Text #2
ID : 189 (0xBD)-33 (0x21)
Format : RLE
Format/Info : Run-length encoding
Muxing mode : DVD-Video

Text #3
ID : 189 (0xBD)-36 (0x24)
Format : RLE
Format/Info : Run-length encoding
Muxing mode : DVD-Video

Text #4
ID : 189 (0xBD)-37 (0x25)
Format : RLE
Format/Info : Run-length encoding
Muxing mode : DVD-Video

Text #5
ID : 189 (0xBD)-34 (0x22)
Format : RLE
Format/Info : Run-length encoding
Muxing mode : DVD-Video

Menu
Title: DATA_2
Size: 7.92 Gb ( 8 308 956 KBytes ) - DVD-9
Enabled regions: 1, 2, 3, 4, 5, 6, 7, 8

VTS_01 :
Play Length: 02:09:16
Video: PAL 16:9 (720x576) VBR, Auto Letterboxed
Audio:
Russian (DTS, 6 ch)
Russian (Dolby AC3, 2 ch)
Russian (Dolby AC3, 6 ch)
English (Dolby AC3, 6 ch)
English (Dolby AC3, 1 ch)
English (Dolby AC3, 1 ch)
Subtitles:
Russian
English
Russian
Russian
Russian
English











Дополнительная информация об издании:

Исходник видео, русской и английской дорожки - BluRay CEE. Английская звуковая дорожка перекодирована из DTS-HD с помощью EAC3TO и Sonic Foundry Soft Encode. Русская дорожка перекодирована из DTS 5.1 с помощью EAC3TO и SurCode DVD-DTS. Дорожки комментариев и Tycoon перекодированы из AC3 с помощью BeLight, AdobeAudition и Sonic Foundry Soft Encode. Видео перекодировано в ProCoder 3.

1) Меню сделано мною на основе оригинального DVD (в Photoshop и AfterEffects). Сохранены и русифицированы все три меню на эпизод. На экранах выбора эпизодов использованы материалы с издания Tycoon.

2) В качестве дополнительных материалов на диске представлены 2 дорожки аудио-комментариев создателей Саги.

3) И главное: в каждом эпизоде при просмотре фильма с включенным русским дубляжем начальные заставки графически переведены на русский язык (перевод осуществлен мной в AfterEffects и Photoshop). Это реализовано с помощью технологии мультиэнгл.






























Поделиться:




реклама партнёра


Вернуться к началу
 Профиль Отправить личное сообщение  
 
   Похожие торренты   Автор   Торрент   Размер 
В этой теме нет новых непрочитанных сообщений. Звёздные войны: Пробуждение силы / Star Wars: The Force Awakens [Фантастика, фэнтези, боевик, приключения, 2015] HDRip, Dub [чистый звук]

salma3

534 | 15

1.46 ГБ

В этой теме нет новых непрочитанных сообщений. Звёздные войны: Пробуждение силы / Star Wars: Episode VII - The Force Awakens [фантастика, приключения, боевик, 2015] BDRip-AVC, Dub [чистый звук]

salma3

73 | 1

2.73 ГБ

В этой теме нет новых непрочитанных сообщений. Звёздные войны: Пробуждение силы / Star Wars: Episode VII - The Force Awakens (фантастика, фэнтези, боевик, приключения, 2015) BDRip-AVC от HELLYWOOD | Лицензия

marya111

337 | 27

2.91 ГБ

В этой теме нет новых непрочитанных сообщений. Звёздные войны: Пробуждение силы / Star Wars: Episode VII - The Force Awakens [фантастика, фэнтези, боевик, приключения, 2015] BDRip 1080p, Dub [чистый звук]

salma3

1971 | 68

15.83 ГБ

В этой теме нет новых непрочитанных сообщений. Звёздные войны: Пробуждение силы / Star Wars: Episode VII - The Force Awakens (фантастика, фэнтези, боевик, приключения, 2015) BDRip 720p от HELLYWOOD | Лицензия, P, A

marya111

56 | 16

7.95 ГБ

В этой теме нет новых непрочитанных сообщений. Звездные войны: Повстанцы / Star Wars Rebels [01x01-04] (Стюарт Ли, Дэйв Филони, Стивен Дж. Ли) [2014, мультфильм, фантастика, фэнтези, боевик, приключения, WEB-DL 720p | LE-Production]

Nickolas3435

20 | 10

4.6 ГБ

В этой теме нет новых непрочитанных сообщений. Звёздные войны: Пробуждение силы / Star Wars: Episode VII - The Force Awakens ( Фантастика, Фэнтези, Боевик, Приключения, 2015) BDRip 1080p от Ash61 | 3D-Video | halfOU

marya111

271 | 43

15.34 ГБ


Начать новую тему Ответить на тему  [ 1 сообщение ] 




Для Мосгорсуда, Роскомнадзора и рекламодателей:: mosgorsud-torrent[собачка]yandex.ru