Торрент файл
скачать торрент магнет ссылка Добавлен: 07 янв 2012, 17:54
Размер: 7.56 ГБ
Сидеров: 0
Личеров: 8
Автор

СообщениеДобавлено: 07 янв 2012, 17:54 

Не в сети
Супермодератор
Аватара пользователя
Дата регистрации:
11 апр 2010, 18:10
Спасибо: 5801 / 7
Сообщения: 56779
Банды Нью-Йорка / Gangs of New York

Перевод: Профессиональный (полное дублирование)
Cубтитры:Русские, английские, французские
Формат: DVD9, DVD Video, MPEG2, AC3/DTS
Страна: США, Германия, Великобритания, Нидерланды, Италия
Режиссер: Мартин Скорсезе
Жанр: Драма, криминал, история
Продолжительность: 02:39:43
Год выпуска: 2002

В ролях: Леонардо ДиКаприо, Дэниэл Дэй-Льюис, Кэмерон Диаз, Джим Броудбент, Джон Си Райли, Генри Томас, Лиам Нисон, Брендан Глисон, Гари Льюис, Стивен Грэм

Описание: Нью-Йорк, 1863 год. В диких трущобах города «американской мечты» действует только один закон — закон силы. Здесь идет в ход любое оружие, никто не считает потерь и не оплакивает погибших. В одной из жестоких стычек от рук вожака «коренных американцев» — Мясника Билла погибает предводитель банды «ирландцев» Вэллон. Его сын Амстердам надолго попадает в исправительную школу, затаив ненависть на Мясника, ставшего хозяином окрестных кварталов. Спустя годы не узнанный никем Амстердам возвратится на родные улицы с единственной целью — отомстить убийце отца…

Рейтинг на КиноПоиск:7.762[/field]
Рейтинг MPAA :R[/field]
Рейтинг на IMDB:7.4/10[/field][/field]

Видео: 720x576, (PAL 16:9), MPEG2 Video, 25,000 кадр/сек, ~ 8210 Кбит/сек
Аудио #1:Английский, 48,0 КГц, DTS, 6 канала(ов), ~755 Кбит/сек[Оригинал]
Аудио #2:Русский, 48,0 КГц, DTS, 6 канала(ов), ~755 Кбит/сек [Профессиональный (полное дублирование)]
Аудио #3:Русский, 48,0 КГц, AC3, 2 канала(ов), ~192 Кбит/сек [Профессиональный (многоголосый, закадровый)][/field]

Полное имя: H:\Фильмы DVD\Банды Нью-Йорка DVD-9\VIDEO_TS\VTS_01_1.VOB
Формат: MPEG-PS
Размер файла: 1024 Мбайт
Продолжительность: 21 м.
Общий поток: 6781 Кбит/сек
Видео
Идентификатор: 224 (0xE0)
Формат: MPEG Video
Версия формата: Version 2
Профиль формата: Main@Main
Параметр BVOP формата: Да
Параметр матрицы формата: По умолчанию
Продолжительность: 21 м.
Вид битрейта: Переменный
Битрейт: 4945 Кбит/сек
Номинальный битрейт: 8210 Кбит/сек
Ширина: 720 пикс.
Высота: 576 пикс.
Соотношение сторон: 16:9
Частота кадров: 25,000 кадр/сек
Стандарт вещания: PAL
Цветовое пространство: YUV
Подвыборка цветности: 4:2:0
Битовая глубина: 8 бит
Тип развёртки: Чересстрочная
Порядок развёртки: Верхнее поле первое
Метод сжатия: С потерями
Бит/(Пиксели*Кадры): 0.477
Размер потока: 746 Мбайт (73%)
Аудио #1
Идентификатор: 130 (0x82)
Формат: AC-3
Формат/Информация: Audio Coding 3
Расширение режима: CM (complete main)
Продолжительность: 21 м.
Вид битрейта: Постоянный
Битрейт: 192 Кбит/сек
Канал(ы): 2 канала(ов)
Расположение каналов: Front: L R
Частота: 48,0 КГц
Битовая глубина: 16 бит
Метод сжатия: С потерями
Размер потока: 29,0 Мбайт (3%)
Аудио #2
Идентификатор: 136 (0x88)
Формат: DTS
Формат/Информация: Digital Theater Systems
Продолжительность: 21 м.
Вид битрейта: Постоянный
Битрейт: 755 Кбит/сек
Канал(ы): 6 канала(ов)
Расположение каналов: Front: L C R, Side: L R, LFE
Частота: 48,0 КГц
Битовая глубина: 16 бит
Метод сжатия: С потерями
Размер потока: 114 Мбайт (11%)
Аудио #3
Идентификатор: 137 (0x89)
Формат: DTS
Формат/Информация: Digital Theater Systems
Продолжительность: 21 м.
Вид битрейта: Постоянный
Битрейт: 755 Кбит/сек
Канал(ы): 6 канала(ов)
Расположение каналов: Front: L C R, Side: L R, LFE
Частота: 48,0 КГц
Битовая глубина: 24 бит
Метод сжатия: С потерями
Размер потока: 114 Мбайт (11%)
Текст #1
Идентификатор: 32 (0x20)
Формат: RLE
Формат/Информация: Run-length encoding
Продолжительность: 21 м.
Текст #2
Идентификатор: 33 (0x21)
Формат: RLE
Формат/Информация: Run-length encoding
Текст #3
Идентификатор: 34 (0x22)
Формат: RLE
Формат/Информация: Run-length encoding
Меню

3 «Золотых сателлита» — за мужскую роль (Дэниел Дей-Льюис — поровну с Майклом Кейном / Michael Caine, сыгравшим в фильме «Тихий американец» / The Quiet American), за работу художника и монтаж (Телма Скунмейкер — Thelma Schoonmaker), «Серебряная лента» в Италии за работу художника, Национальная премия кинокритики и кинопрессы России за мужскую роль (Дэниел Дей-Льюис)
Сезар, 2004 год
Номинации (1):
* Лучший фильм на иностранном языке
Оскар, 2003 год
Номинации (10):
* Лучший фильм
* Лучшая мужская роль (Дэниэл Дэй-Льюис)
* Лучший режиссер (Мартин Скорсезе)
* Лучший оригинальный сценарий
* Лучшая работа оператора
* Лучшие декорации
* Лучшие костюмы
* Лучший звук
* Лучший монтаж
* Лучшая песня — «The Hands That Built America»
Золотой глобус, 2003 год
Победитель (2):
* Лучший режиссер (Мартин Скорсезе)
* Лучшая песня — «The Hands That Built America»
Номинации (3):
* Лучший фильм (драма)
* Лучшая мужская роль (драма) (Дэниэл Дэй-Льюис)
* Лучшая женская роль второго плана (Кэмерон Диаз)
Премия канала «MTV», 2003 год
Номинации (2):
* Лучший поцелуй (Леонардо ДиКаприо, Кэмерон Диаз)
* Лучший злодей (Дэниэл Дэй-Льюис)
Британская академия, 2003 год
Победитель (1):
* Лучшая мужская роль (Дэниэл Дэй-Льюис)
Номинации (11):
* Лучший фильм
* Лучший оригинальный сценарий
* Лучшая работа оператора
* Лучшие костюмы
* Лучший звук
* Лучший монтаж
* Лучшие визуальные эффекты
* Лучший грим/прически
* Лучшая работа художника-постановщика
* Премия имени Дэвида Лина за достижения в режиссуре (Мартин Скорсезе)
* Премия имени Энтони Эскуита за достижения в создании музыки к фильму


























Поделиться:




реклама партнёра


Вернуться к началу
 Профиль Отправить личное сообщение  
 
   Похожие торренты   Автор   Торрент   Размер 
В этой теме нет новых непрочитанных сообщений. Банды Нью-Йорка / Gangs of New York [драма, криминал, история, 2002] Blu-ray 1080p, Dub+Sub

salma3

46 | 22

35.82 ГБ

В этой теме нет новых непрочитанных сообщений. Мгновения Нью-Йорка / New York Minute [комедия, 2004] DVDRip-AVC, Dub

salma3

12 | 4

1.46 ГБ

В этой теме нет новых непрочитанных сообщений. Побег из Нью-Йорка / Escape from New York [фантастика, боевик, 1981] BDRemux 1080p, 2xMvo

salma3

2 | 2

40.28 ГБ

В этой теме нет новых непрочитанных сообщений. После работы / After Hours (Мартин Скорсезе / Martin Scorsese) [1985г., триллер, драма, комедия , WEB-DL 720p] DUB + 2MVO

Alfredovich

17 | 3

3.16 ГБ

В этой теме нет новых непрочитанных сообщений. Драконы Нью-Йорка / Revenge of the Green Dragons (Вэй Кеунг Лау, Эндрю Лу) [Боевик, драма, криминал, 2014] НDRip, Dvo

Dracon

414 | 13

1.37 ГБ

В этой теме нет новых непрочитанных сообщений. Салам, New York / Salam, New York! [Комедия, драма, мелодрама, 2013] WEB-DLRip

Dracon

102 | 5

1.46 ГБ

В этой теме нет новых непрочитанных сообщений. Салам, New York! / Salam, New York! (Руслан Акун) [2013, комедия, драма, мелодрама, WEB-DLRip]

Nickolas3435

455 | 23

2.04 ГБ


Начать новую тему Ответить на тему  [ 1 сообщение ] 




Для Мосгорсуда, Роскомнадзора и рекламодателей:: mosgorsud-torrent[собачка]yandex.ru