Торрент файл
скачать торрент магнет ссылка Добавлен: 07 янв 2012, 17:52
Размер: 4.86 ГБ
Сидеров: 0
Личеров: 6
Автор

СообщениеДобавлено: 07 янв 2012, 17:52 

Не в сети
Супермодератор
Аватара пользователя
Дата регистрации:
11 апр 2010, 18:10
Спасибо: 5801 / 7
Сообщения: 56779
Глория / Gloria

Перевод: Профессиональный (многоголосый, закадровый)
Cубтитры: Испанские
Формат: DVD9, DVD Video, MPEG2, AC3
Страна: США
Режиссер: Сидни Люмет
Жанр: Триллер, драма, криминал
Продолжительность: 01:42:58
Год выпуска: 1998

В ролях: Шэрон Стоун, Жан-Люк Фигероа, Джереми Нортэм, Кэти Мориарти, Джордж К. Скотт, Майк Старр, Бонни Беделиа, Бэрри МакЭвой, Дон Биллет, Джерри Дин

Описание: Глория вышла из тюрьмы, отсидев за своего приятеля, гангстера Кевина, три года. Случай сталкивает ее с шестилетним Ники, чьи родители стали жертвами подручных Кевина, а в руках мальчишки дискета с информацией, грозящей разоблачением преступному синдикату. Кевин, обещавший Глории деньги в банке, не дает ей ни гроша, и тогда, узнав, что мальчишка свидетель и ему грозит смерть, она похищает его. Постепенно у нее прорезаются к нему сильнейшие материнские чувства, и она делает все, чтобы спасти его от убийц…

Рейтинг на КиноПоиск:6.538[/field]
Рейтинг MPAA :R[/field]
Рейтинг на IMDB:4.8/10[/field][/field]

Видео: 720x576, (PAL 16:9), MPEG2 Video, 25,000 кадр/сек, ~ 8000 Кбит/сек
Аудио #1:Испанский, 48,0 КГц, AC3, 6 канала(ов), ~320 Кбит/сек [Оригинал]
Аудио #2:Английский, 48,0 КГц, AC3, 2 канала(ов), ~320 Кбит/сек
Аудио #3:Русский, 48,0 КГц, AC3, 2 канала(ов), ~192 Кбит/сек [Профессиональный (многоголосый, закадровый)]
Аудио #4:Русский, 48,0 КГц, AC3, 2 канала(ов), ~192 Кбит/сек [Профессиональный (многоголосый, закадровый)][/field]


Полное имя: C:\Глория DVD-9\VIDEO_TS\VTS_01_1.VOB
Формат: MPEG-PS
Размер файла: 1024 Мбайт
Продолжительность: 26 м.
Общий поток: 5418 Кбит/сек
Видео
Идентификатор: 224 (0xE0)
Формат: MPEG Video
Версия формата: Version 2
Профиль формата: Main@Main
Параметр BVOP формата: Да
Параметр матрицы формата: По умолчанию
Продолжительность: 26 м.
Вид битрейта: Переменный
Битрейт: 4286 Кбит/сек
Номинальный битрейт: 8000 Кбит/сек
Ширина: 720 пикс.
Высота: 576 пикс.
Соотношение сторон: 2,35:1
Частота кадров: 25,000 кадр/сек
Стандарт вещания: PAL
Цветовое пространство: YUV
Подвыборка цветности: 4:2:0
Битовая глубина: 8 бит
Тип развёртки: Чересстрочная
Порядок развёртки: Верхнее поле первое
Метод сжатия: С потерями
Бит/(Пиксели*Кадры): 0.413
Размер потока: 810 Мбайт (79%)
Аудио #1
Идентификатор: 128 (0x80)
Формат: AC-3
Формат/Информация: Audio Coding 3
Расширение режима: CM (complete main)
Продолжительность: 26 м.
Вид битрейта: Постоянный
Битрейт: 320 Кбит/сек
Канал(ы): 6 канала(ов)
Расположение каналов: Front: L C R, Side: L R, LFE
Частота: 48,0 КГц
Битовая глубина: 16 бит
Метод сжатия: С потерями
Размер потока: 60,5 Мбайт (6%)
Аудио #2
Идентификатор: 129 (0x81)
Формат: AC-3
Формат/Информация: Audio Coding 3
Расширение режима: CM (complete main)
Продолжительность: 26 м.
Вид битрейта: Постоянный
Битрейт: 320 Кбит/сек
Канал(ы): 2 канала(ов)
Расположение каналов: Front: L R
Частота: 48,0 КГц
Битовая глубина: 16 бит
Метод сжатия: С потерями
Размер потока: 60,5 Мбайт (6%)
Аудио #3
Идентификатор: 130 (0x82)
Формат: AC-3
Формат/Информация: Audio Coding 3
Расширение режима: CM (complete main)
Продолжительность: 26 м.
Вид битрейта: Постоянный
Битрейт: 192 Кбит/сек
Канал(ы): 2 канала(ов)
Расположение каналов: Front: L R
Частота: 48,0 КГц
Битовая глубина: 16 бит
Метод сжатия: С потерями
Размер потока: 36,3 Мбайт (4%)
Аудио #4
Идентификатор: 131 (0x83)
Формат: AC-3
Формат/Информация: Audio Coding 3
Расширение режима: CM (complete main)
Продолжительность: 26 м.
Вид битрейта: Постоянный
Битрейт: 192 Кбит/сек
Канал(ы): 2 канала(ов)
Расположение каналов: Front: L R
Частота: 48,0 КГц
Битовая глубина: 16 бит
Метод сжатия: С потерями
Размер потока: 36,3 Мбайт (4%)
Текст
Идентификатор: 32 (0x20)
Формат: RLE
Формат/Информация: Run-length encoding
Меню

Золотая малина, 2000 год
Номинации (1):
* Худшая женская роль (Шэрон Стоун)






























Поделиться:




реклама партнёра


Вернуться к началу
 Профиль Отправить личное сообщение  
 
   Похожие торренты   Автор   Торрент   Размер 
В этой теме нет новых непрочитанных сообщений. Глория / Gloria (Себастьян Лелио / Sebastián Lelio) [2013г., драма, комедия, BDRip 720p] MVO

Alfredovich

51 | 6

4.53 ГБ

В этой теме нет новых непрочитанных сообщений. На холостом ходу / Running on Empty (Сидни Люмет / Sidney Lumet) [1988г., Драма, мелодрама, криминал, музыка, WEB-DLRip-AVC] DVO

Alfredovich

0 | 3

1.88 ГБ

В этой теме нет новых непрочитанных сообщений. Разборка в Бронксе / Hong faan kui / Rumble in the Bronx [боевик, триллер, комедия, криминал, 1995] BDRip 720p, 2xMvo

salma3

11 | 2

7.52 ГБ

В этой теме нет новых непрочитанных сообщений. Воскресший / Resurrection Man [триллер, драма, криминал, 1998] DVDRip, Mvo

salma3

57 | 3

1.37 ГБ

В этой теме нет новых непрочитанных сообщений. Падший / Fallen [триллер, драма, криминал, 1998] BDRip, Avo [Гаврилов]

salma3

19 | 482

2.01 ГБ

В этой теме нет новых непрочитанных сообщений. Обход / Detour [боевик, триллер, драма, криминал, 1998] DVDRip, Mvo

salma3

38 | 5

1.37 ГБ

В этой теме нет новых непрочитанных сообщений. Вероника Марс / Veronica Mars [детектив, криминал, драма, комедия, 2014] BDRip 2xMVO + VO

rutrum

24 | 3

13.22 ГБ


Начать новую тему Ответить на тему  [ 1 сообщение ] 




Для Мосгорсуда, Роскомнадзора и рекламодателей:: mosgorsud-torrent[собачка]yandex.ru