Торрент файл
скачать торрент магнет ссылка Добавлен: 07 янв 2012, 17:52
Размер: 7.25 ГБ
Сидеров: 5
Личеров: 7
Автор

СообщениеДобавлено: 07 янв 2012, 17:52 

Не в сети
Супермодератор
Аватара пользователя
Дата регистрации:
11 апр 2010, 18:10
Спасибо: 5799 / 7
Сообщения: 56779
Достояние республики (2 серии из 2)

Перевод: Не требуется
Cубтитры:Русские
Формат: DVD9, DVD Video, MPEG2, AC3
Страна: СССР
Режиссер: Владимир Бычков
Жанр: Боевик, криминал, приключения
Продолжительность: 01:03:13+01:07:37
Год выпуска: 1971

В ролях: Олег Табаков, Андрей Миронов, Спартак Мишулин, Юрий Толубеев, Виктор Галкин, Евгений Евстигнеев, Ольга Жизнева, Людмила Крылова, Сергей Плотников, Николай Сергеев

Описание: Весна 1918 года. Тараканов, управляющий имением князя Тихвинского, с помощью бывшего придворного учителя фехтования Маркиза и беспризорника Кешки, похищает из покинутого хозяевами поместья коллекцию полотен и скульптур. Надеясь переправить ее за границу, преступники кочуют с цирковой труппой, а по их следу идет неутомимый сотрудник уголовного розыска — Макар Овчинников…

Рейтинг на КиноПоиск:7.728[/field]
Рейтинг на IMDB:7.4/10[/field][/field]

Видео: 720x576, ( PAL 16:9), MPEG2 Video, 25,000 кадр/сек, ~ 9800 Кбит/сек
Аудио: Русский, 48,0 КГц, AC3, 6 канала(ов), ~448 Кбит/сек

Доп. информация: Релиз от "Twister"


Полное имя: I:\Фильмы DVD\Наши\ДОСТОЯНИЕ РЕСПУБЛИКИ DVD-9\VIDEO_TS\VTS_03_1.VOB
Формат: MPEG-PS
Размер файла: 1024 Мбайт
Продолжительность: 18 м.
Общий поток: 7746 Кбит/сек
Видео
Идентификатор: 224 (0xE0)
Формат: MPEG Video
Версия формата: Version 2
Профиль формата: Main@Main
Параметр BVOP формата: Да
Параметр матрицы формата: По умолчанию
Продолжительность: 18 м.
Вид битрейта: Переменный
Битрейт: 7144 Кбит/сек
Номинальный битрейт: 9800 Кбит/сек
Ширина: 720 пикс.
Высота: 576 пикс.
Соотношение сторон: 16:9
Частота кадров: 25,000 кадр/сек
Стандарт вещания: PAL
Цветовое пространство: YUV
Подвыборка цветности: 4:2:0
Битовая глубина: 8 бит
Тип развёртки: Чересстрочная
Порядок развёртки: Верхнее поле первое
Метод сжатия: С потерями
Бит/(Пиксели*Кадры): 0.689
Размер потока: 944 Мбайт (92%)
Аудио
Идентификатор: 128 (0x80)
Формат: AC-3
Формат/Информация: Audio Coding 3
Расширение режима: CM (complete main)
Продолжительность: 18 м.
Вид битрейта: Постоянный
Битрейт: 448 Кбит/сек
Канал(ы): 6 канала(ов)
Расположение каналов: Front: L C R, Side: L R, LFE
Частота: 48,0 КГц
Битовая глубина: 16 бит
Метод сжатия: С потерями
Размер потока: 59,2 Мбайт (6%)
Меню




































Поделиться:




реклама партнёра


Вернуться к началу
 Профиль Отправить личное сообщение  
 
   Похожие торренты   Автор   Торрент   Размер 
В этой теме нет новых непрочитанных сообщений. Мирные убийцы / Нарушители покоя / The Peace Killers [боевик, драма, криминал, 1971] SATRip, Dvo

salma3

12 | 5

1.27 ГБ

В этой теме нет новых непрочитанных сообщений. Стрела / Arrow / 2 сезон 1-23 серии из 23 [фантастика, боевик, драма, криминал, приключения, 2013-2014] WEB-DL 720p, Mvo [LostFilm]

salma3

12 | 3

32.92 ГБ

В этой теме нет новых непрочитанных сообщений. Большой босс / Tang shan da xiong [боевик, триллер, драма, криминал, 1971] BDRemux 1080p, 2Mvo+3Avo+Sub

salma3

12 | 4

24.05 ГБ

В этой теме нет новых непрочитанных сообщений. Аватар: Легенда об Аанге Книга первая / Avatar: The Last Airbender The book the First [Сезон: 1 / Серии: 20] [приключения, фэнтези, 2005] DVD9, Dub

hobbit1021

0 | 3

31.86 ГБ

В этой теме нет новых непрочитанных сообщений. Марш-бросок: Охота на «Охотника» [серия 1-4 из 4] (Владимир Кильбург, Владимир Янковский) [криминал, 2015] SATRip

Dracon

421 | 92

2.41 ГБ

В этой теме нет новых непрочитанных сообщений. Аватар: Легенда об Аанге Книга 3.Огонь / Avatar: The Last Airbender The book 3.Fire [Сезон: 3 / Серии: 21] [Мультсериал, приключения, фэнтези, 2007] DVD9, Dub

hobbit1021

1 | 2

28.79 ГБ

В этой теме нет новых непрочитанных сообщений. Неудержимые 3 / The Expendables 3 [Боевик, приключения, 2014] DVD9, Dub [Лицензия]

Dracon

126 | 27

6.2 ГБ


Начать новую тему Ответить на тему  [ 1 сообщение ] 




Для Мосгорсуда, Роскомнадзора и рекламодателей:: mosgorsud-torrent[собачка]yandex.ru