Торрент файл
скачать торрент магнет ссылка Добавлен: 07 янв 2012, 17:52
Размер: 5.66 ГБ
Сидеров: 4
Личеров: 5
Автор

СообщениеДобавлено: 07 янв 2012, 17:52 

Не в сети
Супермодератор
Аватара пользователя
Дата регистрации:
11 апр 2010, 18:10
Спасибо: 5801 / 7
Сообщения: 56779
Аленький цветочек

Перевод: Не требуется
Cубтитры: Русские, английские, французкие, испанские, итальянские, голандские, японские, шведские, немецкие, португальские, арабские, иврит, китайские
Формат: DVD9, DVD Video, MPEG2, AC3
Страна: СССР
Режиссер: Ирина Поволоцкая, К. Николаевич
Жанр: Фэнтези, семейный
Продолжительность: 01:05:08
Год выпуска: 1977

В ролях: Марина Ильичёва, Лев Дуров, Алла Демидова, Алексей Чернов, Александр Абдулов, Ольга Корытковская, Елена Водолазова, Валентин Гнеушов

Описание: Было у купца три дочери. Отправляясь в заморское странствие, пообещал он им привезти подарки, какие они пожелают. Две старшие попросили себе тканей и красивых безделушек. И лишь меньшая, любимая, Алена, заказала отцу чудо диковинное, невиданное — аленький цветочек, который видела она во сне. Рос тот цветок в далеких краях, во владениях лесного чудовища. Отправился купец в дорогу. Цветок он нашел, однако оказался пленником чудовища. Вслед за отцом собралась в путь Алена. Ее самопожертвование было вознаграждено: ведь чудищем лесным был заколдованный прекрасный принц. Красавица полюбила его за доброе сердце и освободила от чар злой волшебницы. И сыграли они веселую свадьбу.

Рейтинг на КиноПоиск:7.178[/field]
Рейтинг на IMDB:7.0/10[/field][/field]

Видео: 720x576, ( PAL 16:9), MPEG2 Video, 25,000 кадр/сек, ~ 7000 Кбит/сек
Аудио #1:Русский, 48,0 КГц, AC3, 6 канала(ов), ~448 Кбит/сек
Аудио #2: Английский, 48,0 КГц, AC3, 6 канала(ов), ~448 Кбит/сек
Аудио #3: Французский, 48,0 КГц, AC3, 6 канала(ов), ~448 Кбит/сек[/field]

Доп. информация: Релиз от компании "Ruscico".


Полное имя: C:\Users\Петр\Documents\Downloads_p2p\АЛЕНЬКИЙ ЦВЕТОЧЕК DVD-9\VIDEO_TS\VTS_03_1.VOB
Формат: MPEG-PS
Размер файла: 1024 Мбайт
Продолжительность: 16 м.
Общий поток: 8590 Кбит/сек

Видео
Идентификатор: 224 (0xE0)
Формат: MPEG Video
Версия формата: Version 2
Профиль формата: Main@Main
Параметр BVOP формата: Да
Параметр матрицы формата: По умолчанию
Параметры GOP формата: M=2, N=4
Продолжительность: 16 м.
Вид битрейта: Постоянный
Битрейт: 7000 Кбит/сек
Ширина: 720 пикс.
Высота: 576 пикс.
Соотношение сторон: 16:9
Частота кадров: 25,000 кадр/сек
Стандарт вещания: PAL
Цветовое пространство: YUV
Подвыборка цветности: 4:2:0
Битовая глубина: 8 бит
Тип развёртки: Чересстрочная
Порядок развёртки: Верхнее поле первое
Метод сжатия: С потерями
Бит/(Пиксели*Кадры): 0.675
Размер потока: 843 Мбайт (82%)
Аудио #1
Идентификатор: 128 (0x80)
Формат: AC-3
Формат/Информация: Audio Coding 3
Расширение режима: CM (complete main)
Продолжительность: 16 м.
Вид битрейта: Постоянный
Битрейт: 448 Кбит/сек
Канал(ы): 6 канала(ов)
Расположение каналов: Front: L C R, Side: L R, LFE
Частота: 48,0 КГц
Битовая глубина: 16 бит
Метод сжатия: С потерями
Задержка видео: 159 мс.
Размер потока: 53,4 Мбайт (5%)
Аудио #2
Идентификатор: 129 (0x81)
Формат: AC-3
Формат/Информация: Audio Coding 3
Расширение режима: CM (complete main)
Продолжительность: 16 м.
Вид битрейта: Постоянный
Битрейт: 448 Кбит/сек
Канал(ы): 6 канала(ов)
Расположение каналов: Front: L C R, Side: L R, LFE
Частота: 48,0 КГц
Битовая глубина: 16 бит
Метод сжатия: С потерями
Задержка видео: 2 с. 353 мс.
Размер потока: 53,3 Мбайт (5%)
Аудио #3
Идентификатор: 130 (0x82)
Формат: AC-3
Формат/Информация: Audio Coding 3
Расширение режима: CM (complete main)
Продолжительность: 16 м.
Вид битрейта: Постоянный
Битрейт: 448 Кбит/сек
Канал(ы): 6 канала(ов)
Расположение каналов: Front: L C R, Side: L R, LFE
Частота: 48,0 КГц
Битовая глубина: 16 бит
Метод сжатия: С потерями
Задержка видео: 2 с. 353 мс.
Размер потока: 53,3 Мбайт (5%)
Текст #1
Идентификатор: 33 (0x21)
Формат: RLE
Формат/Информация: Run-length encoding
Задержка видео: 2 с. 360 мс.
Текст #2
Идентификатор: 34 (0x22)
Формат: RLE
Формат/Информация: Run-length encoding
Задержка видео: 2 с. 360 мс.
Текст #3
Идентификатор: 35 (0x23)
Формат: RLE
Формат/Информация: Run-length encoding
Задержка видео: 2 с. 360 мс.
Текст #4
Идентификатор: 36 (0x24)
Формат: RLE
Формат/Информация: Run-length encoding
Задержка видео: 2 с. 360 мс.
Текст #5
Идентификатор: 37 (0x25)
Формат: RLE
Формат/Информация: Run-length encoding
Задержка видео: 2 с. 360 мс.
Текст #6
Идентификатор: 38 (0x26)
Формат: RLE
Формат/Информация: Run-length encoding
Задержка видео: 2 с. 360 мс.
Текст #7
Идентификатор: 39 (0x27)
Формат: RLE
Формат/Информация: Run-length encoding
Задержка видео: 2 с. 360 мс.
Текст #8
Идентификатор: 40 (0x2
Формат: RLE
Формат/Информация: Run-length encoding
Задержка видео: 2 с. 360 мс.
Текст #9
Идентификатор: 41 (0x29)
Формат: RLE
Формат/Информация: Run-length encoding
Задержка видео: 2 с. 360 мс.
Текст #10
Идентификатор: 42 (0x2A)
Формат: RLE
Формат/Информация: Run-length encoding
Задержка видео: 2 с. 360 мс.
Текст #11
Идентификатор: 43 (0x2B)
Формат: RLE
Формат/Информация: Run-length encoding
Задержка видео: 2 с. 360 мс.
Текст #12
Идентификатор: 44 (0x2C)
Формат: RLE
Формат/Информация: Run-length encoding
Задержка видео: 2 с. 360 мс.
Меню
































Поделиться:




реклама партнёра


Вернуться к началу
 Профиль Отправить личное сообщение  
 
   Похожие торренты   Автор   Торрент   Размер 
В этой теме нет новых непрочитанных сообщений. Русалочка / Die kleine Meerjungfrau (Ирина Попоу) [Фэнтези, семейный, 2013] HDTVRip, Mvo

Dracon

11 | 3

746.54 МБ

В этой теме нет новых непрочитанных сообщений. Как приручить дракона 2 / How to Train Your Dragon 2 [мультфильм, фэнтези, комедия, приключения, семейный, 2014] DVD9, Dub+Sub [лицензия]

Dracon

49 | 2

7.54 ГБ

В этой теме нет новых непрочитанных сообщений. Повелители снов (Ирина Багрова) [2016, Комедия, фэнтези, WEB-DLRip]

marya111

489 | 30

1.37 ГБ

В этой теме нет новых непрочитанных сообщений. Повелители снов (Ирина Багрова) [2016, Комедия, фэнтези, WEB-DL 1080p]

marya111

135 | 9

2.65 ГБ

В этой теме нет новых непрочитанных сообщений. Усадьба Кенделшу / Candleshoe [драма, комедия, приключения, семейный, 1977] WEBDLRip, Dub

salma3

6 | 3

1.46 ГБ

В этой теме нет новых непрочитанных сообщений. Коварство / Chacha Bhatija [боевик, драма, комедия, семейный, 1977] DVDRip. Avo

salma3

3 | 6

1.56 ГБ

В этой теме нет новых непрочитанных сообщений. Чужая дочь / Audrey Rose [ужасы, фэнтези, триллер, драма, 1977] BDRip 720p, Mvo+Sub

salma3

13 | 4

6.77 ГБ


Начать новую тему Ответить на тему  [ 1 сообщение ] 




Для Мосгорсуда, Роскомнадзора и рекламодателей:: mosgorsud-torrent[собачка]yandex.ru