Торрент файл
скачать торрент магнет ссылка Добавлен: 07 янв 2012, 17:51
Размер: 6.25 ГБ
Сидеров: 0
Личеров: 7
Автор

СообщениеДобавлено: 07 янв 2012, 17:51 

Не в сети
Супермодератор
Аватара пользователя
Дата регистрации:
11 апр 2010, 18:10
Спасибо: 5960 / 7
Сообщения: 56765
Неизвестный солдат (3 серии из 3)

Перевод: Не требуется
Субтитры: отсутствуют
Формат: DVD9, DVD Video, MPEG2, AC3
Страна: СССР
Режиссер: Григорий Аронов, Вадим Зобин
Жанр: Драма
Продолжительность: 01:06:54+01:09:10+01:09:48
Год выпуска: 1984

В ролях: Василий Фунтиков, Николай Гринько, Людмила Новоселова, Роберт Спиричев, Юрий Оськин, Иван Шабалтас, Игорь Класс, Павел Белозеров, Артур Богатов, Эрнст Романов

Описание: Не попав в институт, Сергей Крашенинников приезжает к деду в небольшой городок и начинает работать в дорожной строительной бригаде. В ходе работ строители обнаруживают солдатскую могилу. Сергею поручают выяснить личность погибшего. Он начинает поиск…

Рейтинг на КиноПоиск:7.256[/field]
Рейтинг на IMDB:6.6/10[/field][/field]

Видео: 720x576, (PAL 4:3), MPEG2 Video, 25,000 кадр/сек, ~ 9300 Кбит/сек
Аудио: Русский, 48,0 КГц, AC3, 2 канала(ов), ~192 Кбит/сек

Доп. информация: «Неизвестный солдат» — это продолжение похождений Сергея Крашенинникова (Кроша), начатые в фильме «Каникулы Кроша».
Если же вам понравятся «Каникулы Кроша» и «Неизвестный солдат», то настоятельно рекомендую посмотреть заключительную часть трилогии про Кроша — телесериал уже времён перестройки «Воскресенье, половина седьмого».


Полное имя: C:\Крош\Неизвестный солдат DVD-9\VIDEO_TS\VTS_01_1.VOB
Формат: MPEG-PS
Размер файла: 1024 Мбайт
Продолжительность: 32 м.
Общий поток: 4432 Кбит/сек
Видео
Идентификатор: 224 (0xE0)
Формат: MPEG Video
Версия формата: Version 2
Профиль формата: Main@Main
Параметр BVOP формата: Да
Параметр матрицы формата: По умолчанию
Продолжительность: 32 м.
Вид битрейта: Постоянный
Битрейт: 4152 Кбит/сек
Номинальный битрейт: 9300 Кбит/сек
Ширина: 720 пикс.
Высота: 576 пикс.
Соотношение сторон: 4:3
Частота кадров: 25,000 кадр/сек
Стандарт вещания: PAL
Цветовое пространство: YUV
Подвыборка цветности: 4:2:0
Битовая глубина: 8 бит
Тип развёртки: Чересстрочная
Порядок развёртки: Нижнее поле первое
Метод сжатия: С потерями
Бит/(Пиксели*Кадры): 0.400
Размер потока: 959 Мбайт (94%)
Аудио
Идентификатор: 128 (0x80)
Формат: AC-3
Формат/Информация: Audio Coding 3
Расширение режима: CM (complete main)
Продолжительность: 3 с. 616 мс.
Вид битрейта: Постоянный
Битрейт: 192 Кбит/сек
Канал(ы): 2 канала(ов)
Расположение каналов: Front: L R
Частота: 48,0 КГц
Битовая глубина: 16 бит
Метод сжатия: С потерями
Размер потока: 84,8 Кбайт (0%)
Меню
























Поделиться:




реклама партнёра


Вернуться к началу
 Профиль Отправить личное сообщение  
 
   Похожие торренты   Автор   Торрент   Размер 
В этой теме нет новых непрочитанных сообщений. Класс 1984 / Class of 1984 [боевик, триллер, драма, 1982] BDRip-AVC, Avo

salma3

5 | 6

2.18 ГБ

В этой теме нет новых непрочитанных сообщений. Класс 1984 / Class of 1984 [боевик, триллер, драма, 1982] BDRip, Avo

salma3

27 | 4

1.45 ГБ

В этой теме нет новых непрочитанных сообщений. Класс 1984 / Class of 1984 [боевик, триллер, драма, 1982] HDRip, Avo

salma3

30 | 8

745.19 МБ

В этой теме нет новых непрочитанных сообщений. Класс 1984 / Class of 1984 [боевик, триллер, драма, криминал, 1982] BDRemux 1080p, Avo+Sub

salma3

10 | 2

28.28 ГБ

В этой теме нет новых непрочитанных сообщений. Класс 1984 / Class of 1984 [боевик, триллер, драма, криминал, 1982] BDRip 1080p, Avo

salma3

101 | 32

7.76 ГБ

В этой теме нет новых непрочитанных сообщений. Класс 1984 / Class of 1984 [боевик, триллер, драма, криминал, 1982] BDRip 720p, Avo

salma3

13 | 16

4.67 ГБ

В этой теме нет новых непрочитанных сообщений. Внутреннее расследование [серии 1-11 из 16] (Вадим Саетгалиев) [Боевик, детектив, криминальный фильм, 2015] SatRip

Dracon

19 | 1

5.91 ГБ


Начать новую тему Ответить на тему  [ 1 сообщение ] 




Для Мосгорсуда, Роскомнадзора и рекламодателей:: mosgorsud-torrent[собачка]yandex.ru