Торрент файл
скачать торрент магнет ссылка Добавлен: 07 янв 2012, 17:51
Размер: 7.07 ГБ
Сидеров: 1
Личеров: 7
Автор

СообщениеДобавлено: 07 янв 2012, 17:51 

Не в сети
Супермодератор
Аватара пользователя
Дата регистрации:
11 апр 2010, 18:10
Спасибо: 5798 / 7
Сообщения: 56779
Воскресенье, половина седьмого (4 серии из 4)

Перевод: Не требуется
Субтитры: отсутствуют
Формат: DVD9, DVD Video, MPEG2, AC3
Страна: СССР
Режиссер: Вадим Зобин
Жанр: Криминал, детектив
Продолжительность: 01:13:12+01:10:52+01:10:44+01:05:41
Год выпуска: 1988

В ролях: Василий Фунтиков, Александр Степанов, Владимир Юматов, Елена Костина, Гелена Кирик, Маргарита Борисова, Маргарита Шубина, Абрам Лифшиц, Петр Ступин, Владимир Топцов

Описание: Молодому юристу Сергею Крашенинникову поручают дело o гибeли дeвyшки. Расспрашивая людей, видевших девушку в день её гибели, Сергей начинает понимать, что ему многое не договаривают…

Рейтинг на КиноПоиск:8.209[/field]
Рейтинг на IMDB:8.6/10[/field][/field]

Видео: 720x576, (PAL 4:3), MPEG2 Video, 25,000 кадр/сек, ~ 9300 Кбит/сек
Аудио: Русский, 48,0 КГц, AC3, 2 канала(ов), ~192 Кбит/сек

Доп. информация: Заключительный фильм трилогии приключений Кроша.


Полное имя: C:\Крош\Воскресенье полседьмого DVD-9\VIDEO_TS\VTS_01_1.VOB
Формат: MPEG-PS
Размер файла: 1024 Мбайт
Продолжительность: 38 м.
Общий поток: 3747 Кбит/сек
Видео
Идентификатор: 224 (0xE0)
Формат: MPEG Video
Версия формата: Version 2
Профиль формата: Main@Main
Параметр BVOP формата: Да
Параметр матрицы формата: По умолчанию
Продолжительность: 38 м.
Вид битрейта: Постоянный
Битрейт: 3480 Кбит/сек
Номинальный битрейт: 9300 Кбит/сек
Ширина: 720 пикс.
Высота: 576 пикс.
Соотношение сторон: 4:3
Частота кадров: 25,000 кадр/сек
Стандарт вещания: PAL
Цветовое пространство: YUV
Подвыборка цветности: 4:2:0
Битовая глубина: 8 бит
Тип развёртки: Чересстрочная
Порядок развёртки: Нижнее поле первое
Метод сжатия: С потерями
Бит/(Пиксели*Кадры): 0.336
Размер потока: 951 Мбайт (93%)
Аудио
Идентификатор: 128 (0x80)
Формат: AC-3
Формат/Информация: Audio Coding 3
Расширение режима: CM (complete main)
Продолжительность: 5 с. 792 мс.
Вид битрейта: Постоянный
Битрейт: 192 Кбит/сек
Канал(ы): 2 канала(ов)
Расположение каналов: Front: L R
Частота: 48,0 КГц
Битовая глубина: 16 бит
Метод сжатия: С потерями
Размер потока: 136 Кбайт (0%)
Меню
























Поделиться:




реклама партнёра


Вернуться к началу
 Профиль Отправить личное сообщение  
 
   Похожие торренты   Автор   Торрент   Размер 
В этой теме нет новых непрочитанных сообщений. Внутреннее расследование [серии 1-12 из 16] (Вадим Саетгалиев) [Боевик, детектив, криминальный фильм, 2015] SatRip

Dracon

0 | 0

6.45 ГБ

В этой теме нет новых непрочитанных сообщений. Внутреннее расследование [серии 1-11 из 16] (Вадим Саетгалиев) [Боевик, детектив, криминальный фильм, 2015] SatRip

Dracon

19 | 1

5.91 ГБ

В этой теме нет новых непрочитанных сообщений. Чужой [01-24 из 24] (Георгий Даниелянц, Вадим Саетгалиев, Петр Забелин) [2014, Боевик, детектив, криминал, SATRip]

Nickolas3435

216 | 32

11.67 ГБ

В этой теме нет новых непрочитанных сообщений. Чужой (Сезон 1, Серия 1-24) (Георгий Даниелянц, Вадим Саетгалиев, Петр Забелин) [2014, Боевик, детектив, криминал, DVBRip-AVC]

Враг Нароода

0 | 6

30.72 ГБ

В этой теме нет новых непрочитанных сообщений. Чужой (сезон 1, серия 1-24) (Георгий Даниелянц, Вадим Саетгалиев, Петр Забелин) [2014, Боевик, детектив, криминал, SATRip-AVC]

Враг Нароода

6 | 4

21.3 ГБ

В этой теме нет новых непрочитанных сообщений. Тройное преступление / Baton Rouge [мелодрама, детектив, криминал, 1988] DVDRip, Avo

salma3

9 | 2

1.37 ГБ

В этой теме нет новых непрочитанных сообщений. Скорей бы воскресенье / Vivement dimanche! (Франсуа Трюффо / François Truffaut) [1983г., Франция, триллер, комедия, криминал, HDRip] Dub

Alfredovich

72 | 6

2.19 ГБ


Начать новую тему Ответить на тему  [ 1 сообщение ] 




Для Мосгорсуда, Роскомнадзора и рекламодателей:: mosgorsud-torrent[собачка]yandex.ru