Торрент файл
скачать торрент магнет ссылка Добавлен: 07 янв 2012, 17:50
Размер: 6.02 ГБ
Сидеров: 1
Личеров: 4
Автор

СообщениеДобавлено: 07 янв 2012, 17:50 

Не в сети
Супермодератор
Аватара пользователя
Дата регистрации:
11 апр 2010, 18:10
Спасибо: 5960 / 7
Сообщения: 56765
Хочу как ты / The Change-Up


Перевод: Профессиональный (полное дублирование)
Субтитры: Английские, польские, эстонские, латышские, литовские, украинские, русские (бонусы)
Формат: DVD9, DVD Video, MPEG2, AC3
Страна: США
Режиссер: Дэвид Добкин
Жанр: комедия
Продолжительность: 01:47:50
Год выпуска: 2011

В ролях: Райан Рейнольдс, Джейсон Бэйтман, Лесли Манн, Оливия Уайлд, Алан Аркин, Мирча Монро, Грегори Итцин, Нед Шмидтке, Ло Минг, Дэкс Гриффин, Андреа Мур, Мэтт Корнвэлл, Крэйг Бирко, Тааффе О'Коннелл, Фред Столлер....

Описание: В детстве Митч и Дейв были неразлучными друзьями. Но со временем их дороги разошлись. Дейв стал успешным юристом и примерным семьянином. Митч же остался холостяком и сердцеедом. Он считает, что у друга есть все, о чем только можно мечтать: прекрасная жена Джейми, любящие дети и крутая работа. Дейву же представляется сказочной беззаботная жизнь Митча, который днем курит травку, а ночи проводит в компании красивых женщин. Но однажды в жизни друзей все переворачивается вверх дном: Митч становится Дейвом, а Дейв — Митчем........

Рейтинг на IMDB: 6.4/10
Рейтинг на КиноПоиске: 6.857
Рейтинг на MPAA: R

Видео: 720x576 (PAL16:9), MPEG-2 Video, 25.000 fps, ~ 5140 kbps avg
Аудио #1: Русский: 48.0 kHz, АС3, 6 ch, ~ 384 Kbps avg [Профессиональный (полное дублирование)]
Аудио #2: Польский: 48.0 kHz, АС3, 6 ch, ~ 384 Kbps avg
Аудио #3: Английский: 48.0 kHz, АС3, 6 ch, ~ 384 Kbps avg [Оригинал]

Семпл


    Meню озвученное,анимированное, на русском и английском языках
    Смешные моменты
    удаленная сцена "Кулачный бой"

Формат: MPEG-PS
Размер файла: 1024 Мбайт
Продолжительность: 22 м.
Режим общего битрейта: Переменный
Общий поток: 6420 Кбит/сек

Видео
Идентификатор: 224 (0xE0)
Формат: MPEG Video
Версия формата: Version 2
Профиль формата: Main@Main
Параметр BVOP формата: Да
Параметр матрицы формата: Выборочная
Параметр GOP формата: M=3, N=12
Продолжительность: 22 м.
Вид битрейта: Переменный
Битрейт: 5140 Кбит/сек
Максимальный битрейт: 9800 Кбит/сек
Ширина: 720 пикселей
Высота: 576 пикселей
Соотношение сторон: 16:9
Частота кадров: 25,000 кадров/сек
Стандарт вещания: Component
Цветовое пространство: YUV
Субдискретизация насыщенности: 4:2:0
Битовая глубина: 8 бит
Тип развёртки: Чересстрочная
Порядок развёртки: Верхнее поле первое
Метод сжатия: С потерями
Бит/(Пиксели*Кадры): 0.496
Размер потока: 820 Мбайт (80%)
Основные цвета: BT.470-2 System B, BT.470-2 System G
Характеристики трансфера: BT.470-2 System B, BT.470-2 System G
Коэффициенты матрицы: BT.470-2 System B, BT.470-2 System G

Аудио #1
Идентификатор: 189 (0xBD)-128 (0x80)
Формат: AC-3
Формат/Информация: Audio Coding 3
Расширение режима: CM (complete main)
Режим смешивания: DVD-Video
Продолжительность: 22 м.
Вид битрейта: Постоянный
Битрейт: 384 Кбит/сек
Каналы: 6 каналов
Расположение каналов: Front: L C R, Side: L R, LFE
Частота: 48,0 КГц
Битовая глубина: 16 бит
Метод сжатия: С потерями
Размер потока: 61,2 Мбайт (6%)

Аудио #2
Идентификатор: 189 (0xBD)-129 (0x81)
Формат: AC-3
Формат/Информация: Audio Coding 3
Расширение режима: CM (complete main)
Режим смешивания: DVD-Video
Продолжительность: 22 м.
Вид битрейта: Постоянный
Битрейт: 384 Кбит/сек
Каналы: 6 каналов
Расположение каналов: Front: L C R, Side: L R, LFE
Частота: 48,0 КГц
Битовая глубина: 16 бит
Метод сжатия: С потерями
Размер потока: 61,2 Мбайт (6%)

Аудио #3
Идентификатор: 189 (0xBD)-130 (0x82)
Формат: AC-3
Формат/Информация: Audio Coding 3
Расширение режима: CM (complete main)
Режим смешивания: DVD-Video
Продолжительность: 22 м.
Вид битрейта: Постоянный
Битрейт: 384 Кбит/сек
Каналы: 6 каналов
Расположение каналов: Front: L C R, Side: L R, LFE
Частота: 48,0 КГц
Битовая глубина: 16 бит
Метод сжатия: С потерями
Размер потока: 61,2 Мбайт (6%)

Текст #1
Идентификатор: 189 (0xBD)-32 (0x20)
Формат: RLE
Формат/Информация: Run-length encoding
Режим смешивания: DVD-Video

Текст #2
Идентификатор: 189 (0xBD)-33 (0x21)
Формат: RLE
Формат/Информация: Run-length encoding
Режим смешивания: DVD-Video

Текст #3
Идентификатор: 189 (0xBD)-34 (0x22)
Формат: RLE
Формат/Информация: Run-length encoding
Режим смешивания: DVD-Video

Текст #4
Идентификатор: 189 (0xBD)-35 (0x23)
Формат: RLE
Формат/Информация: Run-length encoding
Режим смешивания: DVD-Video

Текст #5
Идентификатор: 189 (0xBD)-36 (0x24)
Формат: RLE
Формат/Информация: Run-length encoding
Режим смешивания: DVD-Video

Текст #6
Идентификатор: 189 (0xBD)-37 (0x25)
Формат: RLE
Формат/Информация: Run-length encoding
Режим смешивания: DVD-Video

Меню




























Поделиться:




реклама партнёра


Вернуться к началу
 Профиль Отправить личное сообщение  
 
   Похожие торренты   Автор   Торрент   Размер 
В этой теме нет новых непрочитанных сообщений. Судья / The Judge (Дэвид Добкин) [2014, драма, WEB-DLRip-AVC | iTunes] Dub

Nickolas3435

869 | 22

743.08 МБ

В этой теме нет новых непрочитанных сообщений. Судья / The Judge (Дэвид Добкин) [Драма, 2014] HDRip, Dub [iTunes]

Dracon

18 | 3

2.05 ГБ

В этой теме нет новых непрочитанных сообщений. Судья / The Judge (Дэвид Добкин) [Драма, 2014] HDRip, Dub [iTunes]

Dracon

16 | 2

1.37 ГБ

В этой теме нет новых непрочитанных сообщений. Судья / The Judge (Дэвид Добкин) [Драма, 2014] BDRip 1080p, Dub+Sub [Blu-ray CEE]

Dracon

1 | 3

16.93 ГБ

В этой теме нет новых непрочитанных сообщений. Судья / The Judge (Дэвид Добкин) [Драма, 2014] HDRip, Dub [Лицензия]

Dracon

15 | 2

2.05 ГБ

В этой теме нет новых непрочитанных сообщений. Судья / The Judge (Дэвид Добкин) [Драма, 2014] BDRip 720p, Dub+Sub [Лицензия]

Dracon

2004 | 67

3.14 ГБ

В этой теме нет новых непрочитанных сообщений. Судья / The Judge (Дэвид Добкин) [Драма, 2014] BDRip 720p, Dub [iTunes]

Dracon

6 | 3

6.93 ГБ


Начать новую тему Ответить на тему  [ 1 сообщение ] 




Для Мосгорсуда, Роскомнадзора и рекламодателей:: mosgorsud-torrent[собачка]yandex.ru