Торрент файл
скачать торрент магнет ссылка Добавлен: 07 янв 2012, 17:50
Размер: 6.93 ГБ
Сидеров: 3
Личеров: 9
Автор

СообщениеДобавлено: 07 янв 2012, 17:50 

Не в сети
Супермодератор
Аватара пользователя
Дата регистрации:
11 апр 2010, 18:10
Спасибо: 5802 / 7
Сообщения: 56779
Новогоднее похищение [Ремастеринг]


Перевод: Не требуется
Субтитры: Отсутствуют
Формат: DVD9, DVD Video, MPEG2, AC3
Страна: СССР
Режиссер: Юрий Сааков
Жанр: комедия, музыкальный фильм
Продолжительность: 03:22:00
Год выпуска: 1969

В ролях: Михаил Пуговкин, Олег Анофриев, Савелий Крамаров, Евгений Стеблов, Геннадий Крашенинников, Рина Зелёная, Леонид Каневский, Серафима Бирман, Зиновий Высоковский, Майя Плисецкая, Георг Отс, Александр Борисов, Олег Попов, Владимир Белокуров, Юрий Гуляев, Иван Любезнов, Николай Фадеичев, Владимир Васильев (IV), Людмила Зыкина, Юлия Пашковская (Тимошенко), Юрий Тимошенко, Ефим Березин, Татьяна Шмыга, Андрей Миронов, Виргилиюс Норейка, Муслим Магомаев, Юрий Мазурок, Эдита Пьеха, Лев Миров, Марк Новицкий, Эдуард Хиль, Елена Образцова, Георгий Панков, Батыр Закиров, Луиза Закирова, Александр Шуров, Николай Рыкунин, Алла Ларионова, Николай Рыбников, Николай Сличенко, Леонид Харитонов, Клара Лучко, Владимир Трошин, Мария Миронова, Александр Менакер, Людмила Шагалова, Георгий Вицин, Евгений Моргунов, Виктор Чистяков, Юрий Гусаков, Михаил Кушнер, Зоя Харабадзе, Шота Харабадзе, Инна Мясникова, Владислав Лынковский...

Описание: В пожарной части готовятся к встрече Нового года. Трое активистов xудожественной самодеятельности решают поxитить для новогоднего концерта профессиональныx артистов. Капитан милиции расследует поxищение и выслушивает жалобы от "непоxищенныx" артистов....…...

Рейтинг КиноПоиск.RU:7.269

Видео: 720x576 (PAL 4:3), MPEG 2 Video, 25,000 fps, ~9400 kbps avg
Аудио:Русский: 48 kHz, AC3, 2 ch, ~256 kbps avg

Дополнительно:
    Meню статичное, озвученное, на русском языке, с навигацией по эпизодам
    Новогоднее поздравленине генерального секретаря ЦК КПСС Брежнева Л.И. (1971)
    Новогоднее поздравленине генерального секретаря ЦК КПСС Брежнева Л.И. (1979)
    Это было, было ... улыбки 60-х (концертные новогодние номера)


Формат: MPEG-PS
Размер файла: 1024 Мбайт
Продолжительность: 26 м.
Режим общего битрейта: Переменный
Общий поток: 5344 Кбит/сек

Видео
Идентификатор: 224 (0xE0)
Формат: MPEG Video
Версия формата: Version 2
Профиль формата: Main@Main
Параметр BVOP формата: Да
Параметр матрицы формата: По умолчанию
Продолжительность: 26 м.
Вид битрейта: Переменный
Битрейт: 4981 Кбит/сек
Максимальный битрейт: 9400 Кбит/сек
Ширина: 720 пикселей
Высота: 576 пикселей
Соотношение сторон: 4:3
Частота кадров: 25,000 кадров/сек
Стандарт вещания: PAL
Цветовое пространство: YUV
Субдискретизация насыщенности: 4:2:0
Битовая глубина: 8 бит
Тип развёртки: Чересстрочная
Порядок развёртки: Верхнее поле первое
Метод сжатия: С потерями
Бит/(Пиксели*Кадры): 0.480
Размер потока: 955 Мбайт (93%)
Основные цвета: BT.470-2 System B, BT.470-2 System G
Характеристики трансфера: BT.470-2 System B, BT.470-2 System G
Коэффициенты матрицы: BT.470-2 System B, BT.470-2 System G

Аудио
Идентификатор: 189 (0xBD)-128 (0x80)
Формат: AC-3
Формат/Информация: Audio Coding 3
Расширение режима: CM (complete main)
Режим смешивания: DVD-Video
Продолжительность: 26 м.
Вид битрейта: Постоянный
Битрейт: 256 Кбит/сек
Каналы: 2 канала
Расположение каналов: Front: L R
Частота: 48,0 КГц
Битовая глубина: 16 бит
Метод сжатия: С потерями
Задержка видео: -344 мс.
Размер потока: 49,1 Мбайт (5%)

Меню


















Поделиться:




реклама партнёра


Вернуться к началу
 Профиль Отправить личное сообщение  
 
   Похожие торренты   Автор   Торрент   Размер 
В этой теме нет новых непрочитанных сообщений. Карнавал по-нашему [1-2 из 2] [Комедия, музыкальный фильм, 2013] HDTVRip

iopuk60

0 | 2

1.08 ГБ

В этой теме нет новых непрочитанных сообщений. Ну погоди! [01-25 из 25] (Вячеслав Котёночкин, Юрий Бутырин, Владимир Тарасов...) [1969-2006, мультфильм, комедия, семейный, приключения, DVD5]

Nickolas3435

696 | 58

4.36 ГБ

В этой теме нет новых непрочитанных сообщений. Новогоднее настроение [2013 г., Amateur, CamRip]

Dievas

77 | 4

96.8 МБ

В этой теме нет новых непрочитанных сообщений. Новогоднее дежурство [01-02 из 02] (Флюза Фархшатова) [Мелодрама, 2014] IPTVRip

Dracon

528 | 32

1.08 ГБ

В этой теме нет новых непрочитанных сообщений. Три богатыря [Музыкальный, комедия, фантазия, 2013] SATRip

Ανδρέας

В этой теме нет новых непрочитанных сообщений. Похищение Евы [1-4 серия из 4] [Остросюжетная мелодрама, 2015] SATRip

Dracon

2215 | 417

2.15 ГБ

В этой теме нет новых непрочитанных сообщений. Похищение / Rapt [криминал, 2009] BDRip 720p, Dvo+Avo+Sub

salma3

25 | 8

6.5 ГБ


Начать новую тему Ответить на тему  [ 1 сообщение ] 




Для Мосгорсуда, Роскомнадзора и рекламодателей:: mosgorsud-torrent[собачка]yandex.ru