Торрент файл
скачать торрент магнет ссылка Добавлен: 07 янв 2012, 17:50
Размер: 7.9 ГБ
Сидеров: 4
Личеров: 6
Автор

СообщениеДобавлено: 07 янв 2012, 17:50 

Не в сети
Супермодератор
Аватара пользователя
Дата регистрации:
11 апр 2010, 18:10
Спасибо: 5801 / 7
Сообщения: 56779
Клеопатра(Полная версия) (2 серии из 2) / Cleopatra

Перевод: Профессиональный (многоголосый, закадровый)
Cубтитры: отсутствуют
Формат: DVD9, DVD Video, MPEG2, AC3
Страна: США, Германия
Режиссер: Фрэнк Роддэм
Жанр: Драма, биография
Продолжительность: 02:55:32
Год выпуска: 1999

В ролях: Билли Зейн, Тимоти Далтон, Руперт Грейвз, Леонор Варела, Джон Боуи, Арт Малик, Надим Савалха, Оуэн Тил, Филип Куэст, Дара О’Мэлли

Описание: Роковая царица Египта и легендарная тайна ее чар. «Мужчины должны верить: что бы ты не отдала, ему есть что еще завоевать.» 20 — летняя законная царица Египта в изгнании, ее трон захвачен братом и сестрой. Клеопатра жаждет вернуть себе трон, Юлий Цезарь желает вернуть себе дань, которую ему перестали платить египтяне, и завоевать весь мир. Ночь, проведенная вместе круто меняет жизнь обоих…

Рейтинг на КиноПоиск:7.499[/field]
Рейтинг на IMDB:6.4/10[/field][/field]

Видео: 720х480, (NTSC 16:9), MPEG2 Video, 29,970 кадр/сек,~5718 Кбит/сек
Аудио #1:Русский, 48,0 КГц, AC3, 2 канала(ов), ~256 Кбит/сек [Профессиональный (многоголосый, закадровый)]
Аудио #2:Английский, 48,0 КГц, AC3, 2 канала(ов), ~192 Кбит/сек [Оригинал][/field]

Доп. информация: История о легендарной египетской царице была поставлена для телевидения с большим размахом, стоившим продюсерам 30 млн. долларов. Для съемок в Марокко и Лондоне были построены грандиозные декорации. В боевых сценах было задействовано до 1000 человек и 600 лошадей!


Полное имя: D:\Клеопатра DVD-9\VIDEO_TS\VTS_01_1.VOB
Формат: MPEG-PS
Размер файла: 1024 Мбайт
Продолжительность: 22 м.
Общий поток: 6292 Кбит/сек
Видео
Идентификатор: 224 (0xE0)
Формат: MPEG Video
Версия формата: Version 2
Профиль формата: Main@Main
Параметр BVOP формата: Да
Параметр матрицы формата: По умолчанию
Продолжительность: 22 м.
Вид битрейта: Переменный
Битрейт: 5718 Кбит/сек
Ширина: 720 пикс.
Высота: 480 пикс.
Соотношение сторон: 16:9
Частота кадров: 29,970 кадр/сек
Стандарт вещания: NTSC
Цветовое пространство: YUV
Подвыборка цветности: 4:2:0
Битовая глубина: 8 бит
Метод сжатия: С потерями
Бит/(Пиксели*Кадры): 0.552
Размер потока: 931 Мбайт (91%)
Аудио #1
Идентификатор: 128 (0x80)
Формат: AC-3
Формат/Информация: Audio Coding 3
Расширение режима: CM (complete main)
Продолжительность: 18 с.
Вид битрейта: Постоянный
Битрейт: 256 Кбит/сек
Канал(ы): 2 канала(ов)
Расположение каналов: Front: L R
Частота: 48,0 КГц
Битовая глубина: 16 бит
Метод сжатия: С потерями
Размер потока: 588 Кбайт (0%)
Аудио #2
Идентификатор: 129 (0x81)
Формат: AC-3
Формат/Информация: Audio Coding 3
Профиль формата: Dolby Digital
Расширение режима: CM (complete main)
Продолжительность: 18 с.
Вид битрейта: Постоянный
Битрейт: 192 Кбит/сек
Канал(ы): 2 канала(ов)
Расположение каналов: Front: L R
Частота: 48,0 КГц
Битовая глубина: 16 бит
Метод сжатия: С потерями
Размер потока: 441 Кбайт (0%)
Текст
Идентификатор: 224 (0xE0)-DVD-2
Формат: EIA-608
Режим смешивания: DVD-Video
Режим смешивания, доп. информаци : Muxed in Video #1
Размер потока: 0,00 байт (0%)
Меню






























Поделиться:




реклама партнёра


Вернуться к началу
 Профиль Отправить личное сообщение  
 
   Похожие торренты   Автор   Торрент   Размер 
В этой теме нет новых непрочитанных сообщений. Клеопатра 2525 / Cleopatra 2525 [S01-02] [фантастика, 2000-2001] DVDRip, Mvo

salma3

17 | 6

6.48 ГБ

В этой теме нет новых непрочитанных сообщений. Кон-Тики / Kon-Tiki (Хоаким Роннинг / Joachim Rønning, Эспен Сандберг / Espen Sandberg) [2012г., Норвегия, приключения, биография, история, BDRip] AVO (полная версия)

Alfredovich

199 | 16

2.18 ГБ

В этой теме нет новых непрочитанных сообщений. Они сражались за Родину (Сергей Бондарчук) [Военный, драма, 1975] HDTVRip [Полная версия]

Dracon

80 | 1

2.73 ГБ

В этой теме нет новых непрочитанных сообщений. Виктор Цой и группа Кино - Новый мир (полная версия) [Rock, 2014] mp3, 320kb

Dracon

227 | 4

178.02 МБ

В этой теме нет новых непрочитанных сообщений. Красиво с Леной. (полная версия) [2014 г., Homemade,Russian,Blowjob,Straight,Creampie., CamRip]

friizze

27 | 3

102.29 МБ

В этой теме нет новых непрочитанных сообщений. Парни не плачут / Boys Don't Cry [драма, биография, 1999] HDRip, Mvo

salma3

25 | 6

1.45 ГБ

В этой теме нет новых непрочитанных сообщений. Ураган / The Hurricane [драма, биография, спорт, 1999] BDRip 1080p, Mvo+Sub [НТВ+]

salma3

117 | 19

11.54 ГБ


Начать новую тему Ответить на тему  [ 1 сообщение ] 




Для Мосгорсуда, Роскомнадзора и рекламодателей:: mosgorsud-torrent[собачка]yandex.ru