COVID-19 - Последняя информация о коронавирусе на сайте Минздрава




Торрент файл
скачать торрент магнет ссылка Добавлен: 07 янв 2012, 17:50
Размер: 7.25 ГБ
Сидеров: 18
Личеров: 7
Автор

СообщениеДобавлено: 07 янв 2012, 17:50 

Не в сети
Супермодератор
Аватара пользователя
Дата регистрации:
11 апр 2010, 18:10
Спасибо: 6059 / 7
Сообщения: 56660
Клуб самоубийц или приключения титулованной особы (Приключения принца Флоризеля)(3 серии из 3) [Ремастеринг]


Перевод: Не требуется
Субтитры:отсутствуют
Формат: DVD9, DVD Video, MPEG2, AC3
Страна: СССР
Режиссер: Евгений Татарский
Жанр: Комедия, криминал, приключения
Продолжительность: 3x~ 01:03:00
Год выпуска: 1979

В ролях: Олег Даль, Донатас Банионис, Игорь Дмитриев, Любовь Полищук, Виталий Ильин, Игорь Янковский, Елена Соловей, Владимир Шевельков, Асхаб Абакаров, Борис Новиков

Описание: В фильме «Клуб самоубийц, или приключения титулованной особы», более известном как «Приключения принца Флоризеля», с некоторой долей иронии повествуется о захватывающей дух борьбе принца из далекой страны с таинственным и ужасным Председателем — королем преступного мира.

Рейтинг на КиноПоиск:7.992[/field]
Рейтинг на IMDB:7.6/10[/field][/field]

Видео: 720x576, ( PAL 4:3), MPEG2 Video, 25,000 кадр/сек, ~ 4500 Кбит/сек
Аудио #1:Русский, 48,0 КГц, AC3, 6 канала(ов), ~448 Кбит/сек
Аудио #2:Русский, 48,0 КГц, AC3, 1 канал, ~224 Кбит/сек[/field]

Доп. информация: Иронический детектив по мотивам рассказов английского писателя Роберта Льюиса Стивенсона "Клуб самоубийц" и "Алмаз раджи" Лицензионное издание "Крупный план" [/field]


Полное имя: F:\Фильмы DVD\Клуб самоубийц или приключения титулованной особы DVD-9\VIDEO_TS\VTS_02_1.VOB
Формат: MPEG-PS
Размер файла: 1024 Мбайт
Продолжительность: 27 м.
Общий поток: 5274 Кбит/сек
Видео
Идентификатор: 224 (0xE0)
Формат: MPEG Video
Версия формата: Version 2
Профиль формата: Main@Main
Параметр BVOP формата: Да
Параметр матрицы формата: По умолчанию
Параметры GOP формата: M=3, N=15
Продолжительность: 27 м.
Вид битрейта: Постоянный
Битрейт: 4500 Кбит/сек
Ширина: 720 пикс.
Высота: 576 пикс.
Соотношение сторон: 4:3
Частота кадров: 25,000 кадр/сек
Стандарт вещания: PAL
Цветовое пространство: YUV
Подвыборка цветности: 4:2:0
Битовая глубина: 8 бит
Тип развёртки: Чересстрочная
Порядок развёртки: Верхнее поле первое
Метод сжатия: С потерями
Бит/(Пиксели*Кадры): 0.434
Размер потока: 873 Мбайт (85%)
Аудио #1
Идентификатор: 128 (0x80)
Формат: AC-3
Формат/Информация: Audio Coding 3
Расширение режима: CM (complete main)
Продолжительность: 27 м.
Вид битрейта: Постоянный
Битрейт: 448 Кбит/сек
Канал(ы): 6 канала(ов)
Расположение каналов: Front: L C R, Side: L R, LFE
Частота: 48,0 КГц
Битовая глубина: 16 бит
Метод сжатия: С потерями
Задержка видео: 623 мс.
Размер потока: 86,9 Мбайт (8%)
Аудио #2
Идентификатор: 129 (0x81)
Формат: AC-3
Формат/Информация: Audio Coding 3
Расширение режима: CM (complete main)
Продолжительность: 27 м.
Вид битрейта: Постоянный
Битрейт: 224 Кбит/сек
Канал(ы): 1 канал
Расположение каналов: Front: C
Частота: 48,0 КГц
Битовая глубина: 16 бит
Метод сжатия: С потерями
Задержка видео: 623 мс.
Размер потока: 43,5 Мбайт (4%)
Меню












































Поделиться:



Скачать книги и аудио книги через торрент


Вернуться к началу
 Профиль Отправить личное сообщение  
 
   Похожие торренты   Автор   Торрент   Размер 
В этой теме нет новых непрочитанных сообщений. Арабские приключения / Arabian Adventure [Сказка, приключения, семейный, 1979] WEBRip 720p, Dub

salma3

0 | 0

4.71 ГБ

В этой теме нет новых непрочитанных сообщений. Приключения водителя такси / Приключения таксиста / Adventures of a Taxi Driver [комедия, криминал, 1976] WEB-DLRip, Avo

salma3

0 | 0

1.46 ГБ

В этой теме нет новых непрочитанных сообщений. Приключения есть приключения / L'aventure, c'est l'aventure [Комедия, Приключения, 1972] BDRip 720p, Mvo

salma3

0 | 1

6.11 ГБ

В этой теме нет новых непрочитанных сообщений. В спорте только девушки (Евгений Невский) [2014 г., Комедия, приключения, BDRip-AVC] Лицензия

zorgi

5 | 0

1.46 ГБ

В этой теме нет новых непрочитанных сообщений. Узник Зенды / The Prisoner of Zenda [комедия, приключения, 1979] WEB-DLRip, Dvo

salma3

0 | 0

1.46 ГБ

В этой теме нет новых непрочитанных сообщений. Фриско Кид / The Frisco Kid [комедия, приключения, вестерн, 1979] HDTVRip-AVC, Mvo

salma3

24 | 1

2.38 ГБ

В этой теме нет новых непрочитанных сообщений. Ужастики / Goosebumps [фэнтези, комедия, приключения, 2015] DVD9, Dub [Лицензия]

salma3

0 | 0

5.83 ГБ


Начать новую тему Ответить на тему  [ 1 сообщение ] 




Для Мосгорсуда, Роскомнадзора и рекламодателей:: rstracker[собака]yandex.ru
cron