Торрент файл
скачать торрент магнет ссылка Добавлен: 07 янв 2012, 17:49
Размер: 7.73 ГБ
Сидеров: 2
Личеров: 3
Автор

СообщениеДобавлено: 07 янв 2012, 17:49 

Не в сети
Супермодератор
Аватара пользователя
Дата регистрации:
11 апр 2010, 18:10
Спасибо: 5802 / 7
Сообщения: 56779
Карнавальная ночь [Ремастеринг]


Перевод: Не требуется
Субтитры: Отсутствуют
Формат: DVD9, DVD Video, MPEG2, AC3
Страна: СССР
Режиссер: Эльдар Рязанов
Жанр: комедия, мелодрама, музыкальный фильм
Продолжительность: 01:12:26
Год выпуска: 1956

В ролях: Игорь Ильинский, Людмила Гурченко, Юрий Белов, Георгий Куликов, Сергей Филиппов, Ольга Власова, Андрей Тутышкин, Тамара Носова, Геннадий Юдин, Владимир Зельдин, Борис Петкер...

Описание: Знаменитая новогодняя комедия - творческий дебют молодого режиссёра Эльдара Рязанова, покорившего своим фильмом весь Советский Союз. Фильм сразу же был разобран на цитаты, юная Людмила Гурченко тотчас же стала знаменитой, а песни "Пять минут" и "Песенка о хорошем настроении" стали народными. Этот фильм стал одним из символов Нового Года, эстафету у которого через двадцать лет перехватила знаменитая "Ирония судьбы" всё того же Эльдара Рязанова.
Красивая, добрая, весёлая и немного наивная советская музыкальная комедия - один из шедевров советского кинематографа и символов эпохи..…...


Рейтинг КиноПоиск.RU:7.814
Рейтинг на IMDB: 7.6/10

Видео: 720x576 (PAL 4:3), MPEG 2 Video, 25,000 fps, ~7025 kbps avg
Аудио # 1:Русский: 48 kHz, AC3, 6 ch, ~448 kbps avg
Аудио # 2:Русский: 48 kHz, AC3, 1 ch, ~224 kbps avg

семпл

Реставрация "КП"


    Meню статичное, озвученное, на русском языке, с навигацией по эпизодам
    Воспоминания Э.А.Рязанова
    Воспоминания Л.М. Гурченко
    До и после реставрации
  • Фильмографии
..............................
Фильм удостоен первой премии на Всесоюзном кинофестивале в Москве (195.


Формат: MPEG-PS
Размер файла: 1024 Мбайт
Продолжительность: 18 м.
Общий поток: 7829 Кбит/сек

Видео
Идентификатор: 224 (0xE0)
Формат: MPEG Video
Версия формата: Version 2
Профиль формата: Main@Main
Параметр BVOP формата: Да
Параметр матрицы формата: Выборочная
Параметр GOP формата: M=3, N=15
Продолжительность: 18 м.
Битрейт: 7002 Кбит/сек
Максимальный битрейт: 7025 Кбит/сек
Ширина: 720 пикселей
Высота: 576 пикселей
Соотношение сторон: 4:3
Частота кадров: 25,000 кадров/сек
Стандарт вещания: PAL
Цветовое пространство: YUV
Субдискретизация насыщенности: 4:2:0
Битовая глубина: 8 бит
Тип развёртки: Чересстрочная
Порядок развёртки: Верхнее поле первое
Метод сжатия: С потерями
Бит/(Пиксели*Кадры): 0.675
Размер потока: 916 Мбайт (89%)

Аудио #1
Идентификатор: 189 (0xBD)-128 (0x80)
Формат: AC-3
Формат/Информация: Audio Coding 3
Расширение режима: CM (complete main)
Режим смешивания: DVD-Video
Продолжительность: 18 м.
Вид битрейта: Постоянный
Битрейт: 448 Кбит/сек
Каналы: 6 каналов
Расположение каналов: Front: L C R, Side: L R, LFE
Частота: 48,0 КГц
Битовая глубина: 16 бит
Метод сжатия: С потерями
Задержка видео: -80 мс.
Размер потока: 58,6 Мбайт (6%)

Аудио #2
Идентификатор: 189 (0xBD)-129 (0x81)
Формат: AC-3
Формат/Информация: Audio Coding 3
Расширение режима: CM (complete main)
Режим смешивания: DVD-Video
Продолжительность: 18 м.
Вид битрейта: Постоянный
Битрейт: 224 Кбит/сек
Каналы: 1 канал
Расположение каналов: Front: C
Частота: 48,0 КГц
Битовая глубина: 16 бит
Метод сжатия: С потерями
Задержка видео: -80 мс.
Размер потока: 29,3 Мбайт (3%)

Меню






















Поделиться:




реклама партнёра


Вернуться к началу
 Профиль Отправить личное сообщение  
 
   Похожие торренты   Автор   Торрент   Размер 
В этой теме нет новых непрочитанных сообщений. Карнавал по-нашему [1-2 из 2] [Комедия, музыкальный фильм, 2013] HDTVRip

iopuk60

0 | 2

1.08 ГБ

В этой теме нет новых непрочитанных сообщений. Елена и мужчины / Elena et les hommes [драма, мелодрама, комедия, 1956] BDRip 1080p, 3Mvo+Sub

salma3

10 | 2

7.83 ГБ

В этой теме нет новых непрочитанных сообщений. Ночь кошмаров / Ночь ползучих тварей / Night of the Creeps [ужасы, фантастика, триллер, комедия, 1986] HDRip-AVC, Avo

salma3

34 | 7

1.46 ГБ

В этой теме нет новых непрочитанных сообщений. Запомни ночь / Remember the Night [драма, мелодрама, комедия, 1940] BDRip 720p, Mvo+Avo+Sub

salma3

6 | 5

5.97 ГБ

В этой теме нет новых непрочитанных сообщений. Американская ночь / La Nuit americaine [драма, мелодрама, комедия, 1973] BDRip 720p, Dvo+Sub

salma3

79 | 7

3.88 ГБ

В этой теме нет новых непрочитанных сообщений. Американская ночь / La Nuit americaine [драма, мелодрама, комедия, 1973] BDRip 1080p, Dvo+Sub

salma3

4 | 2

10.28 ГБ

В этой теме нет новых непрочитанных сообщений. Сказки на ночь / Bedtime Stories [фэнтези, мелодрама, комедия, семейный, 2008] BDRip 1080p, Dub+Sub

salma3

176 | 13

5.77 ГБ


Начать новую тему Ответить на тему  [ 1 сообщение ] 




Для Мосгорсуда, Роскомнадзора и рекламодателей:: mosgorsud-torrent[собачка]yandex.ru