Торрент файл
скачать торрент магнет ссылка Добавлен: 07 янв 2012, 17:49
Размер: 7.11 ГБ
Сидеров: 0
Личеров: 5
Автор

СообщениеДобавлено: 07 янв 2012, 17:49 

Не в сети
Супермодератор
Аватара пользователя
Дата регистрации:
11 апр 2010, 18:10
Спасибо: 5963 / 7
Сообщения: 56762
Аванти! / Avanti!

Перевод: Профессиональный (многоголосый, закадровый)
Cубтитры: Английские
Формат: DVD9, DVD Video, MPEG2, AC3
Страна: США, Италия
Режиссер: Билли Уайлдер
Жанр: Мелодрама, комедия
Продолжительность: 02:18:15
Год выпуска: 1972

В ролях: Джек Леммон Джульетт Миллс Клайв Ревилл Эдвард Эндрюс Джанфранко Барра Франко Ангрисано Пиппо Франко Франко Акампора Джизельда Кастрини Раффаель Моттола

Описание: Один очень богатый парниша, спокойно и без суеты заколачивающий неплохие бабки у себя в родном Балтиморе, вдруг получает известие, что его папаша «завернул ласты» на другом конце света — в Италии. И что теперь ему надо ехать к черту на рога за трупом, чтобы доставить этот труп на родину. Каково же было изумление нашего миллионера, когда он узнает, что старикашка «отбросил коньки» не просто от старости, а в объятиях шикарной красотки от передоза любовной страсти. Но это было только начало истории…

Рейтинг на КиноПоиск:7.528[/field]
Рейтинг MPAA:R[/field]
Рейтинг на IMDB:7.2/10[/field][/field]

Видео: 720x576, ( PAL 16:9), MPEG2 Video, 25,000 кадр/сек, ~ 9800 Кбит/сек
Аудио #1:Русский, 48,0 КГц, AC3,2 канала(ов), ~ 224 Кбит/сек [Профессиональный (многоголосый, закадровый)]
Аудио #2:Английский, 48,0 КГц, AC3, 2 канала(ов), ~ 224 Кбит/сек [Оригинал][/field]

Доп. информация: Найдено в сети DC++, спасибо всем кто выложил данный фильм.


Полное имя: D:\Аванти! DVD-9\VIDEO_TS\VTS_01_1.VOB
Формат: MPEG-PS
Размер файла: 1000 Мбайт
Продолжительность: 17 м.
Общий поток: 7872 Кбит/сек
Видео
Идентификатор: 224 (0xE0)
Формат: MPEG Video
Версия формата: Version 2
Профиль формата: Main@Main
Параметр BVOP формата: Да
Параметр матрицы формата: По умолчанию
Продолжительность: 17 м.
Вид битрейта: Переменный
Битрейт: 7267 Кбит/сек
Номинальный битрейт: 9800 Кбит/сек
Ширина: 720 пикс.
Высота: 576 пикс.
Соотношение сторон: 16:9
Частота кадров: 25,000 кадр/сек
Стандарт вещания: PAL
Цветовое пространство: YUV
Подвыборка цветности: 4:2:0
Битовая глубина: 8 бит
Тип развёртки: Чересстрочная
Порядок развёртки: Верхнее поле первое
Метод сжатия: С потерями
Бит/(Пиксели*Кадры): 0.701
Размер потока: 924 Мбайт (92%)
Аудио #1
Идентификатор: 128 (0x80)
Формат: AC-3
Формат/Информация: Audio Coding 3
Расширение режима: CM (complete main)
Продолжительность: 17 м.
Вид битрейта: Постоянный
Битрейт: 224 Кбит/сек
Канал(ы): 2 канала(ов)
Расположение каналов: Front: L R
Частота: 48,0 КГц
Битовая глубина: 16 бит
Метод сжатия: С потерями
Размер потока: 28,5 Мбайт (3%)
Аудио #2
Идентификатор: 129 (0x81)
Формат: AC-3
Формат/Информация: Audio Coding 3
Расширение режима: CM (complete main)
Продолжительность: 17 м.
Вид битрейта: Постоянный
Битрейт: 224 Кбит/сек
Канал(ы): 2 канала(ов)
Расположение каналов: Front: L R
Частота: 48,0 КГц
Битовая глубина: 16 бит
Метод сжатия: С потерями
Размер потока: 28,5 Мбайт (3%)
Текст
Идентификатор: 32 (0x20)
Формат: RLE
Формат/Информация: Run-length encoding
Меню

Золотой глобус
1973
Лучшая мужская роль (комедия или мюзикл)
Номинации (5):
Лучший режиссер, Лучший сценарий, Лучшая женская роль (комедия или мюзикл), Лучший фильм (комедия или мюзикл), Лучшая мужская роль второго плана




















Поделиться:




реклама партнёра


Вернуться к началу
 Профиль Отправить личное сообщение  
 
   Похожие торренты   Автор   Торрент   Размер 
В этой теме нет новых непрочитанных сообщений. Билли и Билли / Billy and Billie [S01x01-10 из 10] (Нил ЛаБут) [2015, Драма, мелодрама, комедия, WEB-DLRip | Lord32x Studio]

Dracon

11 | 11

4.4 ГБ

В этой теме нет новых непрочитанных сообщений. Билли и Билли / Billy and Billie [S01x01-10 из 10] (Нил ЛаБут) [2015, Драма, мелодрама, комедия, WEB-DL 720p | Lord32x Studio]

Dracon

8 | 5

8.95 ГБ

В этой теме нет новых непрочитанных сообщений. Джамбо Билли Роуза / Billy Rose's Jumbo [мюзикл, мелодрама, комедия, 1962] BDRip 1080p, Avo+Sub

salma3

1 | 2

13.29 ГБ

В этой теме нет новых непрочитанных сообщений. Кровавые кулаки / Тhe Bloody fists / Dang kou tan [Боевые искусства, 1972] DVD9, Dvo

salma3

7 | 3

4.41 ГБ

В этой теме нет новых непрочитанных сообщений. Опрометчивый / HairBrained (Билли Кент) [Комедия, 2013] HDRip, Dvo

Dracon

388 | 82

1.36 ГБ

В этой теме нет новых непрочитанных сообщений. Билли Мэдисон / Billy Madison [комедия, 1995] BDRip, Mvo [СТС]

salma3

92 | 23

1.45 ГБ

В этой теме нет новых непрочитанных сообщений. Билли Мэдисон / Billy Madison [комедия, 1995] BDRip 1080p, Mvo+Sub

salma3

20 | 5

9.38 ГБ


Начать новую тему Ответить на тему  [ 1 сообщение ] 




Для Мосгорсуда, Роскомнадзора и рекламодателей:: mosgorsud-torrent[собачка]yandex.ru