Торрент файл
скачать торрент магнет ссылка Добавлен: 07 янв 2012, 17:49
Размер: 6.36 ГБ
Сидеров: 0
Личеров: 8
Автор

СообщениеДобавлено: 07 янв 2012, 17:49 

Не в сети
Супермодератор
Аватара пользователя
Дата регистрации:
11 апр 2010, 18:10
Спасибо: 5926 / 7
Сообщения: 56776
Бунтовщик без причины / Rebel Without a Cause

Перевод: Профессиональный (многоголосый, закадровый)
Cубтитры: Английские, немецкие, испанские, голландские, шведские, норвежские, датские, финские, португальские, иврит, польские, греческие, чешские, турецкие, венгерские, исландские, хорватские, французские, итальянские
Формат: DVD9, DVD Video, MPEG2, AC3
Страна: США
Режиссер: Николас Рей
Жанр: Драма, мелодрама
Продолжительность: 01:46:38
Год выпуска: 1955

В ролях: Джеймс Дин, Натали Вуд, Сэл Минео, Джим Бакус, Энн Доран, Кори Аллен, Уильям Хоппер, Рошелль Хадсон, Деннис Хоппер, Эдвард Платт

Описание: Шалопай и сорвиголова Джим вынужден постоянно ходить во все новые и новые школы, так как его отовсюду выгоняют. Вот и на этот раз он идет в новый класс, где встречает классную девчонку. Между ними сразу возникает взаимная симпатия, но она не собирается сдаваться ему сразу и без борьбы — она изо всех сил дразнит его, она уделяет повышенное внимание своему старому бойфренду, крутому «кожаному» Базу, она провоцирует обоих парней на поединок. И он должен состояться — на огромной скорости машины направляются к обрыву…

Рейтинг на КиноПоиск:7.823[/field]
Рейтинг MPAA :PG-13[/field]
Рейтинг на IMDB:7.9/10[/field][/field]

Видео: 720x576, (PAL 16:9), MPEG2 Video, 25,000 кадр/сек, ~ 7500 Кбит/сек
Аудио #1:Русский, 48,0 КГц, AC3, 6 канала(ов), ~384 Кбит/сек [Профессиональный (многоголосый, закадровый)]
Аудио #2:Английский, 48,0 КГц, AC3, 1 канал, ~192 Кбит/сек [Оригинал]
Аудио #3:Немецкий, 48,0 КГц, AC3, 1 канал, ~192 Кбит/сек
Аудио #4:Испанский, 48,0 КГц, AC3, 1 канал, ~192 Кбит/сек[/field]


Полное имя: C:\Бунтовщик без причины DVD9\VIDEO_TS\VTS_01_1.VOB
Формат: MPEG-PS
Размер файла: 1024 Мбайт
Продолжительность: 20 м.
Общий поток: 6985 Кбит/сек
Видео
Идентификатор: 224 (0xE0)
Формат: MPEG Video
Версия формата: Version 2
Профиль формата: Main@Main
Параметр BVOP формата: Да
Параметр матрицы формата: По умолчанию
Параметры GOP формата: M=3, N=15
Продолжительность: 20 м.
Вид битрейта: Переменный
Битрейт: 5886 Кбит/сек
Номинальный битрейт: 7500 Кбит/сек
Ширина: 720 пикс.
Высота: 576 пикс.
Соотношение сторон: 16:9
Частота кадров: 25,000 кадр/сек
Стандарт вещания: PAL
Цветовое пространство: YUV
Подвыборка цветности: 4:2:0
Битовая глубина: 8 бит
Тип развёртки: Чересстрочная
Порядок развёртки: Верхнее поле первое
Метод сжатия: С потерями
Бит/(Пиксели*Кадры): 0.568
Размер потока: 863 Мбайт (84%)
Аудио #1
Идентификатор: 128 (0x80)
Формат: AC-3
Формат/Информация: Audio Coding 3
Расширение режима: CM (complete main)
Продолжительность: 20 м.
Вид битрейта: Постоянный
Битрейт: 384 Кбит/сек
Канал(ы): 6 канала(ов)
Расположение каналов: Front: L C R, Side: L R, LFE
Частота: 48,0 КГц
Битовая глубина: 16 бит
Метод сжатия: С потерями
Задержка видео: -80 мс.
Размер потока: 56,3 Мбайт (5%)
Аудио #2
Идентификатор: 129 (0x81)
Формат: AC-3
Формат/Информация: Audio Coding 3
Расширение режима: CM (complete main)
Продолжительность: 20 м.
Вид битрейта: Постоянный
Битрейт: 192 Кбит/сек
Канал(ы): 1 канал
Расположение каналов: Front: C
Частота: 48,0 КГц
Битовая глубина: 16 бит
Метод сжатия: С потерями
Задержка видео: -80 мс.
Размер потока: 28,1 Мбайт (3%)
Аудио #3
Идентификатор: 130 (0x82)
Формат: AC-3
Формат/Информация: Audio Coding 3
Расширение режима: CM (complete main)
Продолжительность: 20 м.
Вид битрейта: Постоянный
Битрейт: 192 Кбит/сек
Канал(ы): 1 канал
Расположение каналов: Front: C
Частота: 48,0 КГц
Битовая глубина: 16 бит
Метод сжатия: С потерями
Задержка видео: -80 мс.
Размер потока: 28,1 Мбайт (3%)
Аудио #4
Идентификатор: 131 (0x83)
Формат: AC-3
Формат/Информация: Audio Coding 3
Расширение режима: CM (complete main)
Продолжительность: 2 с. 496 мс.
Вид битрейта: Постоянный
Битрейт: 192 Кбит/сек
Канал(ы): 1 канал
Расположение каналов: Front: C
Частота: 48,0 КГц
Битовая глубина: 16 бит
Метод сжатия: С потерями
Размер потока: 58,5 Кбайт (0%)
Текст #1
Идентификатор: 32 (0x20)
Формат: RLE
Формат/Информация: Run-length encoding
Текст #2
Идентификатор: 33 (0x21)
Формат: RLE
Формат/Информация: Run-length encoding
Текст #3
Идентификатор: 34 (0x22)
Формат: RLE
Формат/Информация: Run-length encoding
Текст #4
Идентификатор: 36 (0x24)
Формат: RLE
Формат/Информация: Run-length encoding
Текст #5
Идентификатор: 37 (0x25)
Формат: RLE
Формат/Информация: Run-length encoding
Текст #6
Идентификатор: 39 (0x27)
Формат: RLE
Формат/Информация: Run-length encoding
Текст #7
Идентификатор: 40 (0x2
Формат: RLE
Формат/Информация: Run-length encoding
Текст #8
Идентификатор: 41 (0x29)
Формат: RLE
Формат/Информация: Run-length encoding
Текст #9
Идентификатор: 42 (0x2A)
Формат: RLE
Формат/Информация: Run-length encoding
Текст #10
Идентификатор: 43 (0x2B)
Формат: RLE
Формат/Информация: Run-length encoding
Текст #11
Идентификатор: 44 (0x2C)
Формат: RLE
Формат/Информация: Run-length encoding
Текст #12
Идентификатор: 45 (0x2D)
Формат: RLE
Формат/Информация: Run-length encoding
Текст #13
Идентификатор: 46 (0x2E)
Формат: RLE
Формат/Информация: Run-length encoding
Текст #14
Идентификатор: 47 (0x2F)
Формат: RLE
Формат/Информация: Run-length encoding
Текст #15
Идентификатор: 48 (0x30)
Формат: RLE
Формат/Информация: Run-length encoding
Текст #16
Идентификатор: 50 (0x32)
Формат: RLE
Формат/Информация: Run-length encoding
Текст #17
Идентификатор: 51 (0x33)
Формат: RLE
Формат/Информация: Run-length encoding
Текст #18
Идентификатор: 52 (0x34)
Формат: RLE
Формат/Информация: Run-length encoding
Меню

Британская академия, 1957 год
Номинации (2):
* Лучший фильм
* Лучший иностранный актер (Джеймс Дин)
Оскар, 1956 год
Номинации (3):
* Лучшая мужская роль второго плана (Сэл Минео)
* Лучшая женская роль второго плана (Натали Вуд)
* Лучший сценарий игрового фильма




























Поделиться:




реклама партнёра


Вернуться к началу
 Профиль Отправить личное сообщение  
 
   Похожие торренты   Автор   Торрент   Размер 
В этой теме нет новых непрочитанных сообщений. Мятежник / The Rebel / Dong Mau Anh Hung (Чарли Нгуен / Charlie Nguyen) [2007г., Вьетнам, боевик, драма, мелодрама, HDRip] DVO + 2x VO

Alfredovich

5 | 3

2.52 ГБ

В этой теме нет новых непрочитанных сообщений. [Holed.com] Rebel Lynn (Rebel Lynn Stretched Out / 16,05,17) [2017 г., Teen, Small Tits, Small Boobs, Skinny, Petite, Hardcore, Gonzo, Anal, All Sex]

salma3

38 | 13

457.19 МБ

В этой теме нет новых непрочитанных сообщений. Rebel Lynn / Rebellious Rebel Lynn (2015) HD 720

Dile-1

38 | 87

493.87 МБ

В этой теме нет новых непрочитанных сообщений. Николас Никлби / Nicholas Nickleby [драма, мелодрама, 2002] BDRip 720p, Mvo

salma3

33 | 8

5.85 ГБ

В этой теме нет новых непрочитанных сообщений. Гордый бунтарь / The Proud Rebel [вестерн, драма, 1958] DVDRip, Avo

salma3

47 | 3

1.42 ГБ

В этой теме нет новых непрочитанных сообщений. Поймать вора / To Catch a Thief [триллер, мелодрама, детектив, 1955] BDRip 720p, Mvo+Dvo+Avo+Sub

salma3

52 | 17

9.04 ГБ

В этой теме нет новых непрочитанных сообщений. Тень у пирса [драма, 1955] DVDRip

salma3

40 | 5

742.6 МБ


Начать новую тему Ответить на тему  [ 1 сообщение ] 




Для Мосгорсуда, Роскомнадзора и рекламодателей:: mosgorsud-torrent[собачка]yandex.ru