Торрент файл
скачать торрент магнет ссылка Добавлен: 07 янв 2012, 17:49
Размер: 6.78 ГБ
Сидеров: 2
Личеров: 6
Автор

СообщениеДобавлено: 07 янв 2012, 17:49 

Не в сети
Супермодератор
Аватара пользователя
Дата регистрации:
11 апр 2010, 18:10
Спасибо: 5802 / 7
Сообщения: 56779
Карнавальная ночь 2, или 50 лет спустя [Ремастеринг]


Перевод: Не требуется
Субтитры: Отсутствуют
Формат: DVD9, DVD Video, MPEG2, AC3
Страна: Россия
Режиссер: Эльдар Рязанов
Жанр: комедия, семейный
Продолжительность: 02:08:54
Год выпуска: 2007

В ролях: Алёна Бабенко, Сергей Безруков, Людмила Гурченко, Сергей Маковецкий, Мария Аронова, Алексей Баталов, Валентин Гафт, Владимир Зельдин, Юрий Лактионов, Анастасия Лапина, Роман Мадянов, Сергей Мазаев, Ольга Остроумова, Дмитрий Певцов, Эльдар Рязанов, Юрий Сучков, Инна Чурикова...

Описание: Римейк "Карнавальной ночи" от Эльдара Рязанова. Место действия – тот же Дом Культуры, где праздновали новый год 50 лет назад. Людмила Гурченко снова споет "Пять минут", снова будет прочитана новогодняя лекция, снова год уходящий будет провожаться, а год наступающий – встречаться. Но новое время приводит с собой новых героев, так что все будет по-другому...…...

Рейтинг КиноПоиск.RU:2.576

Видео: 720x576 (PAL 4:3), MPEG 2 Video, 25,000 fps, ~7000 kbps avg
Аудио:Русский: 48 kHz, AC3, 2 ch, ~192 kbps avg

семпл

Дополнительная информация:
Meню статичное, озвученное, на русском языке, с навигацией по эпизодам


Формат: MPEG-PS
Размер файла: 1024 Мбайт
Продолжительность: 19 м.
Общий поток: 7301 Кбит/сек

Видео
Идентификатор: 224 (0xE0)
Формат: MPEG Video
Версия формата: Version 2
Профиль формата: Main@Main
Параметр BVOP формата: Да
Параметр матрицы формата: По умолчанию
Параметр GOP формата: M=3, N=12
Продолжительность: 19 м.
Битрейт: 6964 Кбит/сек
Максимальный битрейт: 7000 Кбит/сек
Ширина: 720 пикселей
Высота: 576 пикселей
Соотношение сторон: 4:3
Частота кадров: 25,000 кадров/сек
Стандарт вещания: PAL
Цветовое пространство: YUV
Субдискретизация насыщенности: 4:2:0
Битовая глубина: 8 бит
Тип развёртки: Чересстрочная
Порядок развёртки: Верхнее поле первое
Метод сжатия: С потерями
Бит/(Пиксели*Кадры): 0.672
Размер потока: 977 Мбайт (95%)

Аудио
Идентификатор: 189 (0xBD)-128 (0x80)
Формат: AC-3
Формат/Информация: Audio Coding 3
Расширение режима: CM (complete main)
Режим смешивания: DVD-Video
Продолжительность: 19 м.
Вид битрейта: Постоянный
Битрейт: 192 Кбит/сек
Каналы: 2 канала
Расположение каналов: Front: L R
Частота: 48,0 КГц
Битовая глубина: 16 бит
Метод сжатия: С потерями
Задержка видео: -80 мс.
Размер потока: 26,9 Мбайт (3%)

Меню















Поделиться:




реклама партнёра


Вернуться к началу
 Профиль Отправить личное сообщение  
 
   Похожие торренты   Автор   Торрент   Размер 
В этой теме нет новых непрочитанных сообщений. Сказки на ночь / Bedtime Stories [фэнтези, мелодрама, комедия, семейный, 2008] BDRip 1080p, Dub+Sub

salma3

176 | 13

5.77 ГБ

В этой теме нет новых непрочитанных сообщений. Ночь кошмаров / Ночь ползучих тварей / Night of the Creeps [ужасы, фантастика, триллер, комедия, 1986] HDRip-AVC, Avo

salma3

34 | 7

1.46 ГБ

В этой теме нет новых непрочитанных сообщений. Ночь в музее 2 / Night at the Museum: Battle of the Smithsonian [фэнтези, комедия, приключения, семейный, 2009] BDRip 720p, Dub+Sub [Лицензия]

salma3

680 | 68

6.93 ГБ

В этой теме нет новых непрочитанных сообщений. 28 недель спустя / 28 Weeks Later [ужасы, фантастика, триллер, 2007] BDRip, Dub [Лицензия]

salma3

12 | 4

1.46 ГБ

В этой теме нет новых непрочитанных сообщений. Финес и Ферб: Ночь живых аптекарей / Phineas and Ferb: Night of The Living Pharmacistsb [Мультфильм / Комедия / Семейный / 2014] WEB-DLRip, Dub

Dracon

260 | 13

714.59 МБ

В этой теме нет новых непрочитанных сообщений. Мастер - С Петлей На Шее (Ремастеринг 2007) [1989, Trash Metal, MP3]

PriZraK

0 | 1

74.2 МБ

В этой теме нет новых непрочитанных сообщений. Ночь в музее: Секрет гробницы / Night at the Museum: Secret of the Tomb (Шон Леви) [Фэнтези, комедия, приключения, семейный, 2015] HDRip, Dub [iTunes]

Dracon

21 | 2

1.37 ГБ


Начать новую тему Ответить на тему  [ 1 сообщение ] 




Для Мосгорсуда, Роскомнадзора и рекламодателей:: mosgorsud-torrent[собачка]yandex.ru