Торрент файл
скачать торрент магнет ссылка Добавлен: 07 янв 2012, 17:49
Размер: 7.73 ГБ
Сидеров: 0
Личеров: 6
Автор

СообщениеДобавлено: 07 янв 2012, 17:49 

Не в сети
Супермодератор
Аватара пользователя
Дата регистрации:
11 апр 2010, 18:10
Спасибо: 5798 / 7
Сообщения: 56779
Дон Сезар де Базан(2 серии из 2)

Перевод: Не требуется
Субтитры: отсутствуют
Формат: DVD9, DVD Video, MPEG2, AC3
Страна: СССР
Режиссер: Ян Фрид
Жанр: Мюзикл, комедия
Продолжительность: 02:15:02
Год выпуска: 1989
В ролях: Михаил Боярский, Анна Самохина, Юрий Богатырев, Наталья Лапина, Игорь Дмитриев, Виктория Горшенина, Михаил Светин, Юрий Дедович, Василий Леонов, Андрей Краско

Описание: Испания XVIII век. Обедневший граф любит уличную танцовщицу, а она — его. Но их союзу противостоит самодовольный и беспринципный испанский король! Он положил глаз на прекрасную барышню и посадил несчастного графа в тюрьму. Дни узника сочтены… Однако настоящая любовь способна преодолеть и не такие преграды!

Рейтинг на КиноПоиск:7.508[/field]
Рейтинг на IMDB:6.9/10[/field][/field]

Видео: 720x576, ( PAL 4:3), MPEG2 Video, 25,000 кадр/сек, ~ 6000 Кбит/сек
Аудио: Русский, 48,0 КГц, AC3, 2 канала(ов), ~192 Кбит/сек

Полное имя: К:\ДОН СЕЗАР ДЕ БАЗАН DVD-9\VIDEO_TS\VTS_01_1.VOB
Формат: MPEG-PS
Размер файла: 1024 Мбайт
Продолжительность: 17 м.
Общий поток: 8301 Кбит/сек
Видео
Идентификатор: 224 (0xE0)
Формат: MPEG Video
Версия формата: Version 2
Профиль формата: Main@Main
Параметр BVOP формата: Да
Параметр матрицы формата: По умолчанию
Продолжительность: 17 м.
Вид битрейта: Постоянный
Битрейт: 7944 Кбит/сек
Номинальный битрейт: 6000 Кбит/сек
Ширина: 720 пикс.
Высота: 576 пикс.
Соотношение сторон: 4:3
Частота кадров: 25,000 кадр/сек
Стандарт вещания: PAL
Цветовое пространство: YUV
Подвыборка цветности: 4:2:0
Битовая глубина: 8 бит
Тип развёртки: Чересстрочная
Порядок развёртки: Нижнее поле первое
Метод сжатия: С потерями
Бит/(Пиксели*Кадры): 0.766
Размер потока: 980 Мбайт (96%)
Аудио
Идентификатор: 128 (0x80)
Формат: AC-3
Формат/Информация: Audio Coding 3
Расширение режима: CM (complete main)
Продолжительность: 2 с. 496 мс.
Вид битрейта: Постоянный
Битрейт: 192 Кбит/сек
Канал(ы): 2 канала(ов)
Расположение каналов: Front: L R
Частота: 48,0 КГц
Битовая глубина: 16 бит
Метод сжатия: С потерями
Размер потока: 58,5 Кбайт (0%)
Меню




















Поделиться:




реклама партнёра


Вернуться к началу
 Профиль Отправить личное сообщение  
 
   Похожие торренты   Автор   Торрент   Размер 
В этой теме нет новых непрочитанных сообщений. Электрошок / Shocker [ужасы, триллер, комедия, 1989] DVD9, Mvo+Sub

salma3

4 | 1

5.45 ГБ

В этой теме нет новых непрочитанных сообщений. Галавант [02 сезон: 01-10 серии из 10] [мюзикл, комедия, 2016] WEB-DLRip [GladiolusTV]

Dracon

7 | 8

2.63 ГБ

В этой теме нет новых непрочитанных сообщений. Очень глупый профессор / Uma Professora Muito Maluquinha (Андре Алвес Пинту, Сезар Родригеш / Andre Alves Pinto, César Rodrigues) [2011г., семейная комедия, DVDRip] avo

Alfredovich

1 | 2

1.34 ГБ

В этой теме нет новых непрочитанных сообщений. Муха 2 / The Fly II [ужасы, фантастика, 1989] DVD9, Mvo+Sub

salma3

3 | 2

4.66 ГБ

В этой теме нет новых непрочитанных сообщений. Просто Мария 1 / Simplemente Maria / 1-143 серии из 143 [мелодрама, 1989-1990] VHSRip, Dub

salma3

2 | 13

38.19 ГБ

В этой теме нет новых непрочитанных сообщений. Внеклассный мюзикл / Sunday School Musical [мюзикл, драма, 2008] DVDRip, Mvo

salma3

5 | 3

1.37 ГБ

В этой теме нет новых непрочитанных сообщений. Сумеречная зона / The Twilight Zone / 1-3 сезоны 1-110 серии из 110 [ужасы, фантастика, фэнтези, триллер, детектив, 1985-1989] DVDRip-AVC, Mvo+Avo [СТС]

salma3

7 | 13

29.99 ГБ


Начать новую тему Ответить на тему  [ 1 сообщение ] 




Для Мосгорсуда, Роскомнадзора и рекламодателей:: mosgorsud-torrent[собачка]yandex.ru