COVID-19 - Последняя информация о коронавирусе на сайте Минздрава




Торрент файл
скачать торрент магнет ссылка Добавлен: 07 янв 2012, 17:49
Размер: 6.76 ГБ
Сидеров: 5
Личеров: 6
Автор

СообщениеДобавлено: 07 янв 2012, 17:49 

Не в сети
Супермодератор
Аватара пользователя
Дата регистрации:
11 апр 2010, 18:10
Спасибо: 6059 / 7
Сообщения: 56660
Зависть богов

Перевод: Не требуется
Субтитры: отсутствуют
Формат: DVD9, DVD Video, MPEG2, AC3
Страна: Россия
Режиссер: Владимир Меньшов
Жанр: Драма, мелодрама
Продолжительность: 02:10:26
Год выпуска: 2000

В ролях: Вера Алентова, Анатолий Лобоцкий, Александр Феклистов, Жерар Депардье, Владлен Давыдов, Марина Дюжева, Людмила Иванова, Юрий Колокольников, Виктор Павлов, Ирина Скобцева

Описание: 1983 год. Телевизионный редактор Соня и переводчик из Франции Андрэ встретились в Москве и полюбили друг друга. У Сони есть сын-подросток и муж, успешный писатель. У Андрэ тоже есть семья в Париже. И вдруг для них исчезло все, кроме внезапно нахлынувшей страсти. Несколько дней своей жизни они были абсолютно счастливы, однако боги не остались равнодушными…

Рейтинг на КиноПоиск:6.503[/field]
Рейтинг на IMDB:6.8/10[/field][/field]

Видео: 720x576, ( PAL 4:3), MPEG2 Video, 25,000 кадр/сек, ~ 6000 Кбит/сек
Аудио: Русский, 48,0 КГц, AC3, 2 канала(ов), ~192 Кбит/сек

Полное имя: К:\ЗАВИСТЬ БОГОВ DVD-9\VIDEO_TS\VTS_01_1.VOB
Формат: MPEG-PS
Размер файла: 1024 Мбайт
Продолжительность: 19 м.
Общий поток: 7466 Кбит/сек
Видео
Идентификатор: 224 (0xE0)
Формат: MPEG Video
Версия формата: Version 2
Профиль формата: Main@Main
Параметр BVOP формата: Да
Параметр матрицы формата: По умолчанию
Продолжительность: 19 м.
Вид битрейта: Постоянный
Битрейт: 7125 Кбит/сек
Номинальный битрейт: 6000 Кбит/сек
Ширина: 720 пикс.
Высота: 576 пикс.
Соотношение сторон: 4:3
Частота кадров: 25,000 кадр/сек
Стандарт вещания: PAL
Цветовое пространство: YUV
Подвыборка цветности: 4:2:0
Битовая глубина: 8 бит
Тип развёртки: Чересстрочная
Порядок развёртки: Нижнее поле первое
Метод сжатия: С потерями
Бит/(Пиксели*Кадры): 0.687
Размер потока: 977 Мбайт (95%)
Аудио
Идентификатор: 128 (0x80)
Формат: AC-3
Формат/Информация: Audio Coding 3
Расширение режима: CM (complete main)
Продолжительность: 2 с. 784 мс.
Вид битрейта: Постоянный
Битрейт: 192 Кбит/сек
Канал(ы): 2 канала(ов)
Расположение каналов: Front: L R
Частота: 48,0 КГц
Битовая глубина: 16 бит
Метод сжатия: С потерями
Размер потока: 65,3 Кбайт (0%)
Меню




















Поделиться:



Скачать книги и аудио книги через торрент


Вернуться к началу
 Профиль Отправить личное сообщение  
 
   Похожие торренты   Автор   Торрент   Размер 
В этой теме нет новых непрочитанных сообщений. Слишком много плоти / Too Much Flesh [драма, 2000] DVD9, Mvo | [Custom]

NTL

2 | 0

6.85 ГБ

В этой теме нет новых непрочитанных сообщений. Влюбленные / Amanti [Мелодрама, драма, 1968] DVD9, Mvo

salma3

0 | 0

4.61 ГБ

В этой теме нет новых непрочитанных сообщений. На вилле / Up at the Villa [драма, мелодрама, 2000] DVDRip, Mvo

salma3

0 | 0

1.47 ГБ

В этой теме нет новых непрочитанных сообщений. Девушка / The Girl [драма, мелодрама, 2000] DVDRip-AVC, Avo

salma3

27 | 7

2.05 ГБ

В этой теме нет новых непрочитанных сообщений. Гамлет / Hamlet [Триллер, драма, мелодрама, 2000] HDRip, Mvo

salma3

0 | 0

1.55 ГБ

В этой теме нет новых непрочитанных сообщений. Гамлет / Hamlet [Триллер, драма, мелодрама, 2000] BDRip 1080p, Mvo

salma3

0 | 0

9.04 ГБ

В этой теме нет новых непрочитанных сообщений. Пляж / The Beach [Триллер, драма, мелодрама, 2000] WEB-DL 1080p, Dub

salma3

17 | 14

9.63 ГБ


Начать новую тему Ответить на тему  [ 1 сообщение ] 




Для Мосгорсуда, Роскомнадзора и рекламодателей:: rstracker[собака]yandex.ru
cron