Торрент файл
скачать торрент магнет ссылка Добавлен: 07 янв 2012, 17:48
Размер: 7.24 ГБ
Сидеров: 15
Личеров: 11
Автор

СообщениеДобавлено: 07 янв 2012, 17:48 

Не в сети
Супермодератор
Аватара пользователя
Дата регистрации:
11 апр 2010, 18:10
Спасибо: 5965 / 7
Сообщения: 56761
Золотой телёнок [Ремастеринг] (2 серии из 2)


Перевод: Не требуется
Субтитры: русские
Формат: DVD9, DVD Video, MPEG2, AC3
Страна: СССР
Режиссер: Михаил Швейцер
Жанр: комедия
Продолжительность: 2 х~01:22:01
Год выпуска: 1968

В ролях: Сергей Юрский, Леонид Куравлёв, Зиновий Гердт, Евгений Евстигнеев, Светлана Старикова, Николай Боярский

Описание: "Великий комбинатор" Остап Бендер с детства мечтает о Рио-де-Жанейро. Ему известны множество способов "сравнительно честного отъема денег у граждан". Но где же в Советской России найти гражданина, обладающего хотя бы полумиллионом рублей? И вот подпольный миллионер, выдающий себя за скромного служащего на нищенском жалованьи, найден. И должен сам принести деньги Остапу "на блюдечке с голубой каемочкой". Как же великий комбинатор добьется этого? Сбудется ли мечта его детства?..…...

Рейтинг КиноПоиск.RU:8.063
Рейтинг на IMDB: 8.2/10

Видео: 720x576 (PAL 16:9), MPEG 2 Video, 25,000 fps, ~4543 kbps avg
Аудио # 1:Русский: 48 kHz, AC3, 6 ch, ~448 kbps avg
Аудио # 2:Русский: 48 kHz, AC3, 2 ch, ~192 kbps avg

семпл

Реставрация "КП"

    Meню статичное, озвученное, на русском языке, с навигацией по эпизодам
    Фильмографии:
    • Михаил Швейцер
    • Евгений Евстигнеев
    • Сергей Юрский
    • Леонид Куравлев
    • Николай Боярский
    • Зиновий Гердт
    • Светлана Старикова

Первая серия фильма снималась в городе Юрьев-Польский Владимирской области весной 1968 году.
Под именем города Черноморска выведен родной город авторов романа Золотой теленок Одесса, где частично и велись съемки.

Формат: MPEG-PS
Размер файла: 1024 Мбайт
Продолжительность: 27 м.
Режим общего битрейта: Переменный
Общий поток: 5288 Кбит/сек

Видео
Идентификатор: 224 (0xE0)
Формат: MPEG Video
Версия формата: Version 2
Профиль формата: Main@Main
Параметр BVOP формата: Да
Параметр матрицы формата: Выборочная
Продолжительность: 27 м.
Вид битрейта: Переменный
Битрейт: 4543 Кбит/сек
Ширина: 720 пикселей
Высота: 576 пикселей
Соотношение сторон: 16:9
Частота кадров: 25,000 кадров/сек
Стандарт вещания: PAL
Цветовое пространство: YUV
Субдискретизация насыщенности: 4:2:0
Битовая глубина: 8 бит
Тип развёртки: Чересстрочная
Порядок развёртки: Верхнее поле первое
Метод сжатия: С потерями
Бит/(Пиксели*Кадры): 0.438
Размер потока: 880 Мбайт (86%)
Основные цвета: BT.470-2 System B, BT.470-2 System G
Характеристики трансфера: BT.470-2 System B, BT.470-2 System G
Коэффициенты матрицы: BT.470-2 System B, BT.470-2 System G

Аудио #1
Идентификатор: 189 (0xBD)-128 (0x80)
Формат: AC-3
Формат/Информация: Audio Coding 3
Расширение режима: CM (complete main)
Режим смешивания: DVD-Video
Продолжительность: 27 м.
Вид битрейта: Постоянный
Битрейт: 448 Кбит/сек
Каналы: 6 каналов
Расположение каналов: Front: L C R, Side: L R, LFE
Частота: 48,0 КГц
Битовая глубина: 16 бит
Метод сжатия: С потерями
Задержка видео: 127 мс.
Размер потока: 86,7 Мбайт (8%)

Аудио #2
Идентификатор: 189 (0xBD)-129 (0x81)
Формат: AC-3
Формат/Информация: Audio Coding 3
Профиль формата: Dolby Digital
Расширение режима: CM (complete main)
Режим смешивания: DVD-Video
Продолжительность: 27 м.
Вид битрейта: Постоянный
Битрейт: 192 Кбит/сек
Каналы: 2 канала
Расположение каналов: Front: L R
Частота: 48,0 КГц
Битовая глубина: 16 бит
Метод сжатия: С потерями
Задержка видео: 1 с. 35 мс.
Размер потока: 37,1 Мбайт (4%)

Меню

























Поделиться:




реклама партнёра


Вернуться к началу
 Профиль Отправить личное сообщение  
 
   Похожие торренты   Автор   Торрент   Размер 
В этой теме нет новых непрочитанных сообщений. Золотой теленок (2 серии из 2) [комедия, 1968] DVDRip-AVC

salma3

38 | 8

2.91 ГБ

В этой теме нет новых непрочитанных сообщений. Временно недоступен ( Михаил Хлебородов) (Серии 1-8 из 8) [2015 , Комедия , HDTVRip 1080p]

Враг Нароода

6 | 2

18.2 ГБ

В этой теме нет новых непрочитанных сообщений. Футбол. Чемпионат Европы 1968-2004 (Все голы) (1968-2004) SATRip-AVC | 50 fps

salma3

32 | 35

14.7 ГБ

В этой теме нет новых непрочитанных сообщений. В поисках золотой рыбки / Kattappava Kanom [Комедия, 2017] HDRip, Mvo [SDI Media]

salma3

5 | 2

1.45 ГБ

В этой теме нет новых непрочитанных сообщений. В поисках золотой рыбки / Kattappava Kanom [комедия, 2017] HDRip, Mvo [SDI Media]

salma3

51 | 135

2.07 ГБ

В этой теме нет новых непрочитанных сообщений. Золотой ребенок / The Golden Child [фэнтези, боевик, комедия, 1986] WEBRip 1080p, Mvo

salma3

80 | 43

11.16 ГБ

В этой теме нет новых непрочитанных сообщений. Трембита [комедия, музыкальный, 1968] HDTVRip

salma3

17 | 9

1.46 ГБ


Начать новую тему Ответить на тему  [ 1 сообщение ] 




Для Мосгорсуда, Роскомнадзора и рекламодателей:: mosgorsud-torrent[собачка]yandex.ru