COVID-19 - Последняя информация о коронавирусе на сайте Минздрава




Торрент файл
скачать торрент магнет ссылка Добавлен: 07 янв 2012, 17:48
Размер: 16.16 ГБ
Сидеров: 0
Личеров: 12
Автор

СообщениеДобавлено: 07 янв 2012, 17:48 

Не в сети
Супермодератор
Аватара пользователя
Дата регистрации:
11 апр 2010, 18:10
Спасибо: 6060 / 7
Сообщения: 56660
Архив смерти(13 серий из 13) / Archiv des Todes

Перевод: Любительский (одноголосый)
Cубтитры: отсутствуют
Формат: DVD9, DVD Video, MPEG2, AC3
Страна: ГДР
Режиссер: Руди Курц
Жанр: Военный, боевик, драма, приключения
Продолжительность: 13х00:58:00
Год выпуска: 1980
В ролях: Юрген Зартманн, Гойко Митич, Леон Немчик, Кжиштоф Строиньски, Альфред Струве, Герд Блахушек, Ренате Блюме

Описание: В конце 1944-го года пять бойцов Сопротивления пытаются проникнуть на территорию оккупированной Польши. Руководители группы: немецкий коммунист Георг и советский разведчик Борис. Кроме них в группу входят капитан вермахта Эрнст, перешедший на сторону РККА, а также бывший член гитлерюгенда Хайнер и польский партизан Янек.
По заданию советской военной контрразведки группа должна найти «архив смерти», предположительно расположенный в одном из рудников под Краковом. Архив содержит очень важные разведывательные материалы, а также планы по созданию подпольной нацистской сети в послевоенный период.


Рейтинг на КиноПоиск:7.000[/field]
Рейтинг на IMDB:8.7/10[/field][/field]

Видео: 720x576, ( PAL 4:3), MPEG2 Video, 25,000 кадр/сек, ~ 7000 Кбит/сек
Аудио: Русский, 48,0 КГц, AC3, 2 канала(ов), ~128 Кбит/сек [Любительский (одноголосый)]
Доп. информация: Скачан в сети DC++.
Меню дисков отсутствует.

Диск #1 DVD-9 01-07 серии
Диск #2DVD-9
Сторона А 08-10 серии
Сторона В 11-13 серии

Полное имя: K:\Архив смерти\Диск-1\VIDEO_TS\VTS_01_1.VOB
Формат: MPEG-PS
Размер файла: 1022 Мбайт
Продолжительность: 53 м.
Общий поток: 2658 Кбит/сек
Видео
Идентификатор: 224 (0xE0)
Формат: MPEG Video
Версия формата: Version 2
Профиль формата: Main@Main
Параметр BVOP формата: Да
Параметр матрицы формата: По умолчанию
Параметры GOP формата: M=3, N=12
Продолжительность: 53 м.
Вид битрейта: Переменный
Битрейт: 2477 Кбит/сек
Номинальный битрейт: 7000 Кбит/сек
Ширина: 720 пикс.
Высота: 576 пикс.
Соотношение сторон: 4:3
Частота кадров: 25,000 кадр/сек
Стандарт вещания: PAL
Цветовое пространство: YUV
Подвыборка цветности: 4:2:0
Битовая глубина: 8 бит
Тип развёртки: Прогрессивная
Метод сжатия: С потерями
Бит/(Пиксели*Кадры): 0.239
Размер потока: 952 Мбайт (93%)
Аудио
Идентификатор: 128 (0x80)
Формат: AC-3
Формат/Информация: Audio Coding 3
Расширение режима: CM (complete main)
Продолжительность: 53 м.
Вид битрейта: Постоянный
Битрейт: 128 Кбит/сек
Канал(ы): 2 канала(ов)
Расположение каналов: Front: L R
Частота: 48,0 КГц
Битовая глубина: 16 бит
Метод сжатия: С потерями
Размер потока: 49,2 Мбайт (5%)
Меню

серия 1. "Погоня за человеком"
серия 2. "Повсюду подстерегает смерть"
серия 3. "След теряется"
серия 4. "Мёртвые справок не дают"
серия 5. "Загадочная радиограмма"
серия 6. "Призрак в Холлентале"
серия 7. "Жёлтый топаз"
серия 8. "Сигналы из оврага"
серия 9. "Гонка со временем"
серия 10. "Мертвец в соляной шахте"
серия 11. "Могила в шахте"
серия 12. "Подставной фотограф"
серия 13. "Пароль "Пилат""
















Поделиться:



Скачать книги и аудио книги через торрент


Вернуться к началу
 Профиль Отправить личное сообщение  
 
   Похожие торренты   Автор   Торрент   Размер 
В этой теме нет новых непрочитанных сообщений. Ночь охоты / La nuit des traquées [драма, ужасы, криминал, 1980] DVDRip, Avo

salma3

0 | 0

1.46 ГБ

В этой теме нет новых непрочитанных сообщений. Последний отсчет / The Final Countdown [Фантастика, приключения, военный, 1980] BDRip 1080p, Mvo

salma3

68 | 0

8.3 ГБ

В этой теме нет новых непрочитанных сообщений. Последний отсчет / The Final Countdown [Фантастика, боевик, военный, 1980] BDRemux 1080p, Mvo [3D-Video]

salma3

0 | 1

22.39 ГБ

В этой теме нет новых непрочитанных сообщений. В пустыне смерти / Into the Badlands [03x01-10 из 16] [Боевик, драма, приключения, 2018] WEBRip 720p, Mvo [OmskBird]

salma3

5 | 83

9.63 ГБ

В этой теме нет новых непрочитанных сообщений. В пустыне смерти / Into the Badlands [S03] [Боевик, драма, приключения, 2018] WEB-DL 720p, Mvo [LostFilm]

salma3

0 | 0

25.76 ГБ

В этой теме нет новых непрочитанных сообщений. В пустыне смерти / Into the Badlands [S02] [боевик, драма, приключения, 2017] BDRip-HEVC 1080p, Mvo [NewStudio]

salma3

0 | 0

20.75 ГБ

В этой теме нет новых непрочитанных сообщений. В пустыне смерти / Into the Badlands [S03] [боевик, драма, приключения, 2018-2019] WEB-DL 1080p, Mvo [TVShows]

salma3

0 | 0

51.89 ГБ


Начать новую тему Ответить на тему  [ 1 сообщение ] 




Для Мосгорсуда, Роскомнадзора и рекламодателей:: rstracker[собака]yandex.ru
cron