Торрент файл
скачать торрент магнет ссылка Добавлен: 07 янв 2012, 17:48
Размер: 7.76 ГБ
Сидеров: 6
Личеров: 9
Автор

СообщениеДобавлено: 07 янв 2012, 17:48 

Не в сети
Супермодератор
Аватара пользователя
Дата регистрации:
11 апр 2010, 18:10
Спасибо: 5801 / 7
Сообщения: 56779
12 стульев [Ремастеринг]


Перевод: Не требуется
Субтитры: Русские
Формат: DVD9, DVD Video, MPEG2, AC3
Страна: СССР
Режиссер: Леонид Гайдай
Жанр: комедия
Продолжительность: 2 х ~01:16:25
Год выпуска: 1971

В ролях: Арчил Гомиашвили, Сергей Филиппов, Михаил Пуговкин, Клара Румянова, Юрий Никулин, Григорий Шпигель, Наталья Крачковская, Гликерия Богданова-Чеснокова, Николай Пажитнов, Готлиб Ронинсон, Николай Горлов, Наталья Варлей, Виктор Павлов, Наталья Воробьёва, Игорь Ясулович, Нина Гребешкова, Владимир Этуш, Георгий Вицин, Леонид Гайдай, Роман Филиппов......

Описание: Первая серия - "Лед тронулся", вторая серия - "Заседание продолжается".
Комедийная лента, рассказывающая о похождениях самого, пожалуй, популярного и любимого в народе литературного героя. Остап Бендер с Ипполитом Матвеевичем Воробьяниновым ищут фамильные драгоценности, которые покойная теща Воробьянинова спрятала в одном из стульев столового гарнитура. Параллельно с ними поисками сокровищ занимается священник отец Федор, которому эта "страшная" тайна была открыта на исповеди.…...


Рейтинг КиноПоиск.RU:8.104
Рейтинг на IMDB: 8.3/10

Видео: 720x576 (PAL 4:3), MPEG 2 Video, 25,000 fps, ~5034 kbps avg
Аудио # 1:Русский: 48 kHz, AC3, 6 ch, ~448 kbps avg
Аудио # 2:Русский: 48 kHz, AC3, 1 ch, ~256 kbps avg

Семпл

Реставрация "КП"

    Meню статичное, озвученное, на русском языке, с навигацией по эпизодам
    "Остап Бендер. История прототипа"
    Фильмографии:
    • Леонид Гайдай
    • Александр Зацепин
    • Арчил Гомиашвили
    • Сергей Филиппов
    • Юрий Никулин
    • Михаил Пуговкин
    • Наталья Варлей
    • Георгий Вицин
    • Савелий Крамаров
    • Нина Гребешкова

* Роман Ильфа и Петрова собирался экранизировать Георгий Данелия, но потом «перегорел» и подарил съёмки Гайдаю, который об этом давно мечтал.
*На роль Остапа пробовалось более 20 актёров: среди них были Владимир Высоцкий, Алексей Баталов, Олег Борисов, Валентин Гафт, Андрей Миронов. Арчила Гомиашвили режиссёр нашёл в провинции. Из-за болезни (по другой версии — из-за сильного кавказского акцента) артист не смог озвучить Бендера, в фильме он говорит голосом Юрия Саранцева.
* Кандидатуру Гомиашвили не одобрило «Госкино». Наверху стали возмущаться: «Почему Бендер станет грузином?» На что Гайдай тут же парировал: «Так ведь папа у Остапа турецкоподданный. А почему маме не быть грузинкой?»
*«Женщиной необъятных размеров с арбузными грудями» могли стать Галина Волчек и Нонна Мордюкова. Но Мордюкова, так блистательно сыгравшая в «Бриллиантовой руке», на эту роль не подошла, показалась не смешной. Предпочтение собирались отдать Галине Волчек, но тут звукооператор из команды Гайдая привёл на съемочную площадку свою жену, студентку ВГИКа Наталью Крачковскую. Гайдай глянул на неё и сказал: «Вот она, мечта поэта».
* Савелий Крамаров сыграл в обоих советских фильмах «12 стульев». В этом фильме он сыграл одноглазого шахматиста, а в фильме 1976 года — слесаря Полесова.
* Георгий Вицин так же сыграл в обоих советских фильмах «12 стульев». В этом фильме он сыграл монтера Мечникова, а в фильме 1976 года — Безенчука.
* Занимает по посещаемости 96-е место среди отечественных фильмов за всю историю советского кинопроката

Формат: MPEG-PS
Размер файла: 1024 Мбайт
Продолжительность: 24 м.
Режим общего битрейта: Переменный
Общий поток: 5781 Кбит/сек

Видео
Идентификатор: 224 (0xE0)
Формат: MPEG Video
Версия формата: Version 2
Профиль формата: Main@Main
Параметр BVOP формата: Да
Параметр матрицы формата: Выборочная
Параметр GOP формата: M=3, N=15
Продолжительность: 24 м.
Вид битрейта: Переменный
Битрейт: 4962 Кбит/сек
Максимальный битрейт: 5034 Кбит/сек
Ширина: 720 пикселей
Высота: 576 пикселей
Соотношение сторон: 4:3
Частота кадров: 25,000 кадров/сек
Стандарт вещания: PAL
Цветовое пространство: YUV
Субдискретизация насыщенности: 4:2:0
Битовая глубина: 8 бит
Тип развёртки: Чересстрочная
Порядок развёртки: Верхнее поле первое
Метод сжатия: С потерями
Бит/(Пиксели*Кадры): 0.479
Размер потока: 879 Мбайт (86%)

Аудио #1
Идентификатор: 189 (0xBD)-128 (0x80)
Формат: AC-3
Формат/Информация: Audio Coding 3
Расширение режима: CM (complete main)
Режим смешивания: DVD-Video
Продолжительность: 24 м.
Вид битрейта: Постоянный
Битрейт: 448 Кбит/сек
Каналы: 6 каналов
Расположение каналов: Front: L C R, Side: L R, LFE
Частота: 48,0 КГц
Битовая глубина: 16 бит
Метод сжатия: С потерями
Задержка видео: 1 с. 914 мс.
Размер потока: 79,2 Мбайт (8%)

Аудио #2
Идентификатор: 189 (0xBD)-129 (0x81)
Формат: AC-3
Формат/Информация: Audio Coding 3
Расширение режима: CM (complete main)
Режим смешивания: DVD-Video
Продолжительность: 24 м.
Вид битрейта: Постоянный
Битрейт: 256 Кбит/сек
Каналы: 1 канал
Расположение каналов: Front: C
Частота: 48,0 КГц
Битовая глубина: 16 бит
Метод сжатия: С потерями
Задержка видео: 1 с. 977 мс.
Размер потока: 45,3 Мбайт (4%)

Меню




























Поделиться:




реклама партнёра


Вернуться к началу
 Профиль Отправить личное сообщение  
 
   Похожие торренты   Автор   Торрент   Размер 
В этой теме нет новых непрочитанных сообщений. Операция «Ы» и другие приключения Шурика (Леонид Гайдай) [Эксцентрическая комедия, мелодрама, криминал, 1965] BDRip 1080p

Dracon

1 | 0

7.16 ГБ

В этой теме нет новых непрочитанных сообщений. 12 стульев / The Twelve Chairs [комедия, приключения, 1970] BDRip, Mvo [5 канал]

salma3

90 | 8

1.46 ГБ

В этой теме нет новых непрочитанных сообщений. Молодая гвардия [Серии 1-12 из 12] (Леонид Пляскин) [Военный, драма, 2015] WEBRip 720p

Dracon

195 | 233

18.87 ГБ

В этой теме нет новых непрочитанных сообщений. Котч / Старикан / Kotch [Драма, комедия, 1971] DVDRip, Dvo

salma3

14 | 3

1.48 ГБ

В этой теме нет новых непрочитанных сообщений. Рожденный побеждать / Born to Win [драма, комедия, криминал, 1971] SATRip, Dvo

salma3

2 | 3

1.55 ГБ

В этой теме нет новых непрочитанных сообщений. Сыщик / Gumshoe [драма, комедия, криминал, детектив, 1971] DVDRip, Mvo

salma3

4 | 5

1.47 ГБ

В этой теме нет новых непрочитанных сообщений. Мастер - С Петлей На Шее (Ремастеринг 2007) [1989, Trash Metal, MP3]

PriZraK

0 | 1

74.2 МБ


Начать новую тему Ответить на тему  [ 1 сообщение ] 




Для Мосгорсуда, Роскомнадзора и рекламодателей:: mosgorsud-torrent[собачка]yandex.ru