Торрент файл
скачать торрент магнет ссылка Добавлен: 07 янв 2012, 17:48
Размер: 6.26 ГБ
Сидеров: 0
Личеров: 3
Автор

СообщениеДобавлено: 07 янв 2012, 17:48 

Не в сети
Супермодератор
Аватара пользователя
Дата регистрации:
11 апр 2010, 18:10
Спасибо: 5801 / 7
Сообщения: 56779
Черные бабочки / Black Butterflies


Перевод: Профессиональный (многоголосый, закадровый)
Субтитры: Русские
Формат: DVD9, DVD Video, MPEG2, AC3
Страна: Германия, Нидерланды, ЮАР
Режиссер: Паула ван дер Уст
Жанр: драма
Продолжительность: 01:35:26
Год выпуска: 2011

В ролях: Кэрис Ван Хутен, Рутгер Хауэр, Лиам Каннингэм, Грант Суэнби, Грэхэм Кларк, Кэндис Д’Арси, Леон Клайнгман, Николас Полинг, Дженнифер Штейн, Мартинес Ван Дер Берг....

Описание: Основано на реальной биографии Ингрид Йонкер. Молодая поэтесса Ингрид (Карис Ван Хутен, "Черная книга") беззаботно плавает в открытом море. Вдруг ее охватывает паника, пронизывающий страх... Еще секунда — и волна накроет Ингрид навсегда. Но вдруг она ощущает прикосновение крепкой мужской руки. Это Джек, писатель. Он не просто спасет Ингрид, но и навсегда изменит окружающий ее мир. Однако сможет ли новая любовь победить неизбежные болезненные увлечения Ингрид мужчинами, бесконечные политические перевороты и волю ее деспотичного отца? Или хрупкой талантливой поэтессе не суждено справиться с все глубже утягивающим ее на дно круговоротом жизни и смерти... …......

Рейтинг на IMDB: 6.0/10
Рейтинг на КиноПоиске: 5.794

Видео: 720x576 (PAL16:9), MPEG-2 Video, 25.000 fps, ~ 8000 kbps avg
Аудио #1: Русский: 48.0 kHz, АС3, 6 ch, ~ 384 Kbps avg [Профессиональный (многоголосый, закадровый)]
Аудио #2: Русский: 48.0 kHz, АС3, 2 ch, ~ 192 Kbps avg [Профессиональный (многоголосый, закадровый)]
Аудио #3: Английский: 48.0 kHz, АС3, 6 ch, ~ 384 Kbps avg [Оригинал]

Семпл

    Meню статичное, озвученное, на русском языке, с навигацией по эпизодам

Формат: MPEG-PS
Размер файла: 1024 Мбайт
Продолжительность: 15 м.
Общий поток: 9114 Кбит/сек

Видео
Идентификатор: 224 (0xE0)
Формат: MPEG Video
Версия формата: Version 2
Профиль формата: Main@Main
Параметр BVOP формата: Да
Параметр матрицы формата: Выборочная
Параметр GOP формата: M=3, N=15
Продолжительность: 15 м.
Битрейт: 7973 Кбит/сек
Максимальный битрейт: 8000 Кбит/сек
Ширина: 720 пикселей
Высота: 576 пикселей
Соотношение сторон: 16:9
Частота кадров: 25,000 кадров/сек
Стандарт вещания: PAL
Цветовое пространство: YUV
Субдискретизация насыщенности: 4:2:0
Битовая глубина: 8 бит
Тип развёртки: Чересстрочная
Порядок развёртки: Верхнее поле первое
Метод сжатия: С потерями
Бит/(Пиксели*Кадры): 0.769
Размер потока: 896 Мбайт (87%)

Аудио #1
Идентификатор: 189 (0xBD)-128 (0x80)
Формат: AC-3
Формат/Информация: Audio Coding 3
Расширение режима: CM (complete main)
Режим смешивания: DVD-Video
Продолжительность: 15 м.
Вид битрейта: Постоянный
Битрейт: 384 Кбит/сек
Каналы: 6 каналов
Расположение каналов: Front: L C R, Side: L R, LFE
Частота: 48,0 КГц
Битовая глубина: 16 бит
Метод сжатия: С потерями
Задержка видео: -272 мс.
Размер потока: 43,1 Мбайт (4%)

Аудио #2
Идентификатор: 189 (0xBD)-129 (0x81)
Формат: AC-3
Формат/Информация: Audio Coding 3
Расширение режима: CM (complete main)
Режим смешивания: DVD-Video
Продолжительность: 15 м.
Вид битрейта: Постоянный
Битрейт: 192 Кбит/сек
Каналы: 2 канала
Расположение каналов: Front: L R
Частота: 48,0 КГц
Битовая глубина: 16 бит
Метод сжатия: С потерями
Задержка видео: -208 мс.
Размер потока: 21,6 Мбайт (2%)

Аудио #3
Идентификатор: 189 (0xBD)-130 (0x82)
Формат: AC-3
Формат/Информация: Audio Coding 3
Расширение режима: CM (complete main)
Режим смешивания: DVD-Video
Продолжительность: 15 м.
Вид битрейта: Постоянный
Битрейт: 384 Кбит/сек
Каналы: 6 каналов
Расположение каналов: Front: L C R, Side: L R, LFE
Частота: 48,0 КГц
Битовая глубина: 16 бит
Метод сжатия: С потерями
Задержка видео: -272 мс.
Размер потока: 43,1 Мбайт (4%)

Меню



















Поделиться:




реклама партнёра


Вернуться к началу
 Профиль Отправить личное сообщение  
 
   Похожие торренты   Автор   Торрент   Размер 
В этой теме нет новых непрочитанных сообщений. Чёрные Паруса / Black Sails / [S03] [драма, приключения, 2016] WEBRip [Amedia]

Dracon

1158 | 1221

6.46 ГБ

В этой теме нет новых непрочитанных сообщений. Чёрные паруса / Black Sails [S1] [драма, приключения, 2014] HDTV 1080i, Mvo [BaibaKo]

Dracon

48 | 40

37.82 ГБ

В этой теме нет новых непрочитанных сообщений. Чёрные Паруса / Black Sails [01x01-08 из 08] [драма, приключения, 2014] WEBRip, Mvo [Amedia]

Dracon

324 | 80

5.43 ГБ

В этой теме нет новых непрочитанных сообщений. Чёрные Паруса / Black Sails [03x01-04 из 10] [драма, приключения, 2016] WEB-DL 720p [Amedia]

Dracon

21 | 112

6.98 ГБ

В этой теме нет новых непрочитанных сообщений. Чёрные Паруса / Black Sails [01x01-05] [драма, приключения, 2014] WEBRip 1080p, Mvo [Amedia]+Sub

Dracon

64 | 59

11.9 ГБ

В этой теме нет новых непрочитанных сообщений. Чёрные Паруса / Black Sails [03x01-04 из 11] [драма, приключения, 2016] HDTVRip (1080p), Mvo+Sub [Amedia]

Dracon

67 | 78

9.2 ГБ

В этой теме нет новых непрочитанных сообщений. Чёрные Паруса / Black Sails [01x07] [драма, приключения, 2014] WEBRip 1080p, Mvo [Amedia]+Sub

Dracon

1 | 2

2.31 ГБ


Начать новую тему Ответить на тему  [ 1 сообщение ] 




Для Мосгорсуда, Роскомнадзора и рекламодателей:: mosgorsud-torrent[собачка]yandex.ru