Торрент файл
скачать торрент магнет ссылка Добавлен: 07 янв 2012, 17:48
Размер: 6.36 ГБ
Сидеров: 0
Личеров: 8
Автор

СообщениеДобавлено: 07 янв 2012, 17:48 

Не в сети
Супермодератор
Аватара пользователя
Дата регистрации:
11 апр 2010, 18:10
Спасибо: 5960 / 7
Сообщения: 56765
Великолепная семерка / The Magnificent Seven

Перевод: Профессиональный (многоголосый, закадровый)
Cубтитры: Английские, немецкие, французские, итальянские, испанские, русские
Формат: DVD9, DVD Video, MPEG2, AC3
Страна: США
Режиссер: Джон Стёрджес
Жанр: Драма, приключения, вестерн
Продолжительность: 02:02:49
Год выпуска: 1960

В ролях: Юл Бриннер, Эли Уоллах, Стив МакКуин, Чарльз Бронсон, Роберт Вон, Брэд Декстер, Джеймс Коберн, Хорст Буххольц, Хорхе Мартинес де Ойос, Владимир Соколов

Описание: В маленькой деревушке крестьяне годами страдают от бесчинств местных бандитов. Их главарь Калвера держит в страхе всю округу, мучая ее жителей постоянными поборами и наказаниями. И однажды крестьяне решают нанять себе защитников — семерых вооруженных всадников во главе с бритоголовым Крисом. Великолепная семерка быстро наводит порядок, но Калвейре все же удается бежать. И тогда поимка злодея и его соратников становится делом чести великолепной семерки.

Рейтинг на КиноПоиск:7.808[/field]
Рейтинг на IMDB:7.8/10[/field][/field]

Видео: 720x576, ( PAL 16:9), MPEG2 Video, 25,000 кадр/сек, ~ 7400 Кбит/сек
Аудио #1:Английский, 48,0 КГц, AC3, 6 канала(ов), ~448 Кбит/сек [Оригинал]
Аудио #2:Немецкий, 48,0 КГц, AC3, 6 канала(ов), ~448 Кбит/сек
Аудио #3:Французский, 48,0 КГц, AC3, 6 канала(ов), ~448 Кбит/сек
Аудио #4:Итальянский, 48,0 КГц, AC3, 6 канала(ов), ~448 Кбит/сек
Аудио #5:Испанский, 48,0 КГц, AC3, 6 канала(ов), ~448 Кбит/сек
Аудио #6:Русский, 48,0 КГц, AC3, 2 канала(ов), ~192 Кбит/сек [Профессиональный (многоголосый, закадровый)][/field]

Доп. информация: Меню: анимированное, озвученное на пяти европейских языках, с выбором эпизодов, звука


Полное имя: I:\Фильмы DVD\Ихние\Великолепная семерка DVD-9\VIDEO_TS\VTS_01_1.VOB
Формат: MPEG-PS
Размер файла: 1024 Мбайт
Продолжительность: 20 м.
Общий поток: 6940 Кбит/сек
Видео
Идентификатор: 224 (0xE0)
Формат: MPEG Video
Версия формата: Version 2
Профиль формата: Main@Main
Параметр BVOP формата: Да
Параметр матрицы формата: По умолчанию
Параметры GOP формата: M=3, N=12
Продолжительность: 20 м.
Вид битрейта: Переменный
Битрейт: 4370 Кбит/сек
Номинальный битрейт: 7400 Кбит/сек
Ширина: 720 пикс.
Высота: 576 пикс.
Соотношение сторон: 2,35:1
Частота кадров: 25,000 кадр/сек
Стандарт вещания: PAL
Цветовое пространство: YUV
Подвыборка цветности: 4:2:0
Битовая глубина: 8 бит
Тип развёртки: Чересстрочная
Порядок развёртки: Верхнее поле первое
Метод сжатия: С потерями
Бит/(Пиксели*Кадры): 0.421
Размер потока: 645 Мбайт (63%)
Аудио #1
Идентификатор: 128 (0x80)
Формат: AC-3
Формат/Информация: Audio Coding 3
Расширение режима: CM (complete main)
Продолжительность: 20 м.
Вид битрейта: Постоянный
Битрейт: 448 Кбит/сек
Канал(ы): 6 канала(ов)
Расположение каналов: Front: L C R, Side: L R, LFE
Частота: 48,0 КГц
Битовая глубина: 16 бит
Метод сжатия: С потерями
Размер потока: 66,1 Мбайт (6%)
Аудио #2
Идентификатор: 129 (0x81)
Формат: AC-3
Формат/Информация: Audio Coding 3
Расширение режима: CM (complete main)
Продолжительность: 20 м.
Вид битрейта: Постоянный
Битрейт: 448 Кбит/сек
Канал(ы): 6 канала(ов)
Расположение каналов: Front: L C R, Side: L R, LFE
Частота: 48,0 КГц
Битовая глубина: 16 бит
Метод сжатия: С потерями
Размер потока: 66,1 Мбайт (6%)
Аудио #3
Идентификатор: 130 (0x82)
Формат: AC-3
Формат/Информация: Audio Coding 3
Расширение режима: CM (complete main)
Продолжительность: 20 м.
Вид битрейта: Постоянный
Битрейт: 448 Кбит/сек
Канал(ы): 6 канала(ов)
Расположение каналов: Front: L C R, Side: L R, LFE
Частота: 48,0 КГц
Битовая глубина: 16 бит
Метод сжатия: С потерями
Размер потока: 66,1 Мбайт (6%)
Аудио #4
Идентификатор: 131 (0x83)
Формат: AC-3
Формат/Информация: Audio Coding 3
Расширение режима: CM (complete main)
Продолжительность: 20 м.
Вид битрейта: Постоянный
Битрейт: 448 Кбит/сек
Канал(ы): 6 канала(ов)
Расположение каналов: Front: L C R, Side: L R, LFE
Частота: 48,0 КГц
Битовая глубина: 16 бит
Метод сжатия: С потерями
Размер потока: 66,1 Мбайт (6%)
Аудио #5
Идентификатор: 132 (0x84)
Формат: AC-3
Формат/Информация: Audio Coding 3
Расширение режима: CM (complete main)
Продолжительность: 20 м.
Вид битрейта: Постоянный
Битрейт: 448 Кбит/сек
Канал(ы): 6 канала(ов)
Расположение каналов: Front: L C R, Side: L R, LFE
Частота: 48,0 КГц
Битовая глубина: 16 бит
Метод сжатия: С потерями
Размер потока: 66,1 Мбайт (6%)
Аудио #6
Идентификатор: 133 (0x85)
Формат: AC-3
Формат/Информация: Audio Coding 3
Расширение режима: CM (complete main)
Продолжительность: 20 м.
Вид битрейта: Постоянный
Битрейт: 192 Кбит/сек
Канал(ы): 2 канала(ов)
Расположение каналов: Front: L R
Частота: 48,0 КГц
Битовая глубина: 16 бит
Метод сжатия: С потерями
Размер потока: 28,3 Мбайт (3%)
Текст #1
Идентификатор: 32 (0x20)
Формат: RLE
Формат/Информация: Run-length encoding
Текст #2
Идентификатор: 33 (0x21)
Формат: RLE
Формат/Информация: Run-length encoding
Текст #3
Идентификатор: 34 (0x22)
Формат: RLE
Формат/Информация: Run-length encoding
Текст #4
Идентификатор: 35 (0x23)
Формат: RLE
Формат/Информация: Run-length encoding
Текст #5
Идентификатор: 36 (0x24)
Формат: RLE
Формат/Информация: Run-length encoding
Текст #6
Идентификатор: 37 (0x25)
Формат: RLE
Формат/Информация: Run-length encoding
Меню






Оскар
Номинации:
1961
Лучший саундтрек для драматических/комедийных картин


























Поделиться:




реклама партнёра


Вернуться к началу
 Профиль Отправить личное сообщение  
 
   Похожие торренты   Автор   Торрент   Размер 
В этой теме нет новых непрочитанных сообщений. Великолепная семерка / The Magnificent Seven (боевик, приключения, вестерн, 2016) BDRip-AVC | A

marya111

132 | 23

744.73 МБ

В этой теме нет новых непрочитанных сообщений. Великолепная семерка / The Magnificent Seven [боевик, приключения, вестерн, 2016] BDRip-AVC, Avo

salma3

929 | 67

2.18 ГБ

В этой теме нет новых непрочитанных сообщений. Великолепная семерка / The Magnificent Seven [боевик, приключения, вестерн, 2016] BDRip, Avo

salma3

4072 | 170

1.46 ГБ

В этой теме нет новых непрочитанных сообщений. Великолепная семерка / The Magnificent Seven [Боевик, приключения, вестерн, 2016] DVD5, Dub

salma3

109 | 69

4.37 ГБ

В этой теме нет новых непрочитанных сообщений. Великолепная семерка / The Magnificent Seven [боевик, приключения, вестерн, 2016] BDRip, Avo+Sub [Гаврилов

salma3

114 | 35

2.19 ГБ

В этой теме нет новых непрочитанных сообщений. Великолепная семерка / The Magnificent Seven (Боевик, вестерн, приключения, 2016) HDRip от MegaPeer | L1

marya111

239 | 18

794.3 МБ

В этой теме нет новых непрочитанных сообщений. Великолепная семерка / The Magnificent Seven ( Боевик, вестерн, приключения, 2016) HDRip от MegaPeer | A

marya111

144 | 28

794.3 МБ


Начать новую тему Ответить на тему  [ 1 сообщение ] 




Для Мосгорсуда, Роскомнадзора и рекламодателей:: mosgorsud-torrent[собачка]yandex.ru