COVID-19 - Последняя информация о коронавирусе на сайте Минздрава




Торрент файл
скачать торрент магнет ссылка Добавлен: 07 янв 2012, 17:47
Размер: 4.71 ГБ
Сидеров: 2
Личеров: 9
Автор

СообщениеДобавлено: 07 янв 2012, 17:47 

Не в сети
Супермодератор
Аватара пользователя
Дата регистрации:
11 апр 2010, 18:10
Спасибо: 6059 / 7
Сообщения: 56660
Герой - одиночка / Last Man Standing


Перевод: Профессиональный (многоголосый, закадровый)
Cубтитры Английские[/field:
Формат: DVD9, DVD Video, MPEG2, AC3
Страна: США
Режиссер: Уолтер Хилл
Жанр: Боевик, триллер, драма, криминал, вестерн
Продолжительность: 01:43:42
Год выпуска: 1996

В ролях: Брюс Уиллис, Брюс Дерн, Уильям Сэндерсон, Кристофер Уокен, Дэвид Патрик, Келли Карина, Ломбард Нед Эйзенберг, Александра Пауэрс, Майкл Империоли, Кен Дженкинс

Описание: Америка, времена «сухого закона». Бродяга и наемник Джон Смит по пути к мексиканской границе оказывается в маленьком техасском городке, где обосновались две банды бутлегеров — ирландца Дойла и итальянца Строззи, ведущие между собой бесконечные кровавые разборки.
Примыкая по очереди то к одной, то к другой банде, разряжая свой пистолет то в одних гангстеров, то в других, Смит на самом деле преследует свои собственные цели…


Рейтинг на КиноПоиск:7.037
РейтингMPAA:R[/field]
Рейтинг на IMDB:6.2/10[/field][/field]

Видео: 720x480, (NTSC 16:9), MPEG2 Video, 23,976 кадр/сек, ~ 7500 Кбит/сек
Аудио #1: Русский, 48,0 КГц, AC3, 6 канала(ов), ~224 Кбит/сек [Профессиональный (многоголосый, закадровый)]
Аудио #2: Английский, 48,0 КГц, AC3, 6 канала(ов), ~384 Кбит/сек [Оригинал]
Аудио #2: Русский, 48,0 КГц, DTS, 6 канала(ов), ~755 Кбит/сек [Профессиональный (многоголосый, закадровый)]


Полное имя: I:\Фильмы DVD\Ихние\ГЕРОЙ-ОДИНОЧКА DVD-9\VIDEO_TS\VTS_02_1.VOB
Формат: MPEG-PS
Размер файла: 1024 Мбайт
Продолжительность: 22 м.
Общий поток: 6479 Кбит/сек
Видео
Идентификатор: 224 (0xE0)
Формат: MPEG Video
Версия формата: Version 2
Профиль формата: Main@Main
Параметр BVOP формата: Да
Параметр матрицы формата: По умолчанию
Параметры GOP формата: M=3, N=12
Продолжительность: 22 м.
Вид битрейта: Переменный
Битрейт: 4988 Кбит/сек
Номинальный битрейт: 7500 Кбит/сек
Ширина: 720 пикс.
Высота: 480 пикс.
Соотношение сторон: 16:9
Частота кадров: 23,976 кадр/сек
Стандарт вещания: NTSC
Цветовое пространство: YUV
Подвыборка цветности: 4:2:0
Битовая глубина: 8 бит
Тип развёртки: Прогрессивная
Порядок развёртки: 2:3 Pulldown
Метод сжатия: С потерями
Бит/(Пиксели*Кадры): 0.602
Размер потока: 788 Мбайт (77%)
Аудио #1
Идентификатор: 128 (0x80)
Формат: AC-3
Формат/Информация: Audio Coding 3
Расширение режима: CM (complete main)
Продолжительность: 22 м.
Вид битрейта: Постоянный
Битрейт: 224 Кбит/сек
Канал(ы): 6 канала(ов)
Расположение каналов: Front: L C R, Side: L R, LFE
Частота: 48,0 КГц
Битовая глубина: 16 бит
Метод сжатия: С потерями
Задержка видео: -83 мс.
Размер потока: 35,4 Мбайт (3%)
Аудио #2
Идентификатор: 129 (0x81)
Формат: AC-3
Формат/Информация: Audio Coding 3
Расширение режима: CM (complete main)
Продолжительность: 22 м.
Вид битрейта: Постоянный
Битрейт: 384 Кбит/сек
Канал(ы): 6 канала(ов)
Расположение каналов: Front: L C R, Side: L R, LFE
Частота: 48,0 КГц
Битовая глубина: 16 бит
Метод сжатия: С потерями
Задержка видео: -83 мс.
Размер потока: 60,7 Мбайт (6%)
Аудио #3
Идентификатор: 138 (0x8A)
Формат: DTS
Формат/Информация: Digital Theater Systems
Продолжительность: 22 м.
Вид битрейта: Постоянный
Битрейт: 755 Кбит/сек
Канал(ы): 6 канала(ов)
Расположение каналов: Front: L C R, Side: L R, LFE
Частота: 48,0 КГц
Битовая глубина: 24 бит
Метод сжатия: С потерями
Задержка видео: -83 мс.
Размер потока: 119 Мбайт (12%)
Текст #1
Идентификатор: 224 (0xE0)-DVD-2
Формат: EIA-608
Режим смешивания: DVD-Video
Режим смешивания, доп. информаци : Muxed in Video #1
Размер потока: 0,00 байт (0%)
Текст #2
Идентификатор: 32 (0x20)
Формат: RLE
Формат/Информация: Run-length encoding
Меню


























Поделиться:



Скачать книги и аудио книги через торрент


Вернуться к началу
 Профиль Отправить личное сообщение  
 
   Похожие торренты   Автор   Торрент   Размер 
В этой теме нет новых непрочитанных сообщений. Герой-одиночка / Last Man Standing [Боевик, триллер, драма, 1996] WEB-DL 1080p, Mvo [Open Matte]

salma3

0 | 0

12.54 ГБ

В этой теме нет новых непрочитанных сообщений. Герой-одиночка / Last Man Standing [Боевик, триллер, 1996] WEB-DLRip-AVC, Mvo [Open Matte]

salma3

0 | 0

1.45 ГБ

В этой теме нет новых непрочитанных сообщений. Одиночка / A Man Apart [Боевик, триллер, драма, 2003] BDRip 720p, Dub

salma3

0 | 0

5.9 ГБ

В этой теме нет новых непрочитанных сообщений. Одиночка / A Man Apart [Боевик, триллер, драма, 2003] BDRip 720p, Dub [Open Matte]

salma3

0 | 1

7.76 ГБ

В этой теме нет новых непрочитанных сообщений. Выход в красное / Exit in Red [Триллер, драма, криминал, 1996] DVD9, Dvo

salma3

0 | 0

5.52 ГБ

В этой теме нет новых непрочитанных сообщений. Одиночка / Le Solitaire [Боевик, триллер, драма, 1987] BDRip 1080p, Dub

salma3

0 | 0

8.54 ГБ

В этой теме нет новых непрочитанных сообщений. Крутой Уокер. Правосудие по-техасски / Walker, Texas Ranger [S05] [боевик, криминал, вестерн, 1996-1997] DVDRip-AVC, Dvo

salma3

0 | 0

24.75 ГБ


Начать новую тему Ответить на тему  [ 1 сообщение ] 




Для Мосгорсуда, Роскомнадзора и рекламодателей:: rstracker[собака]yandex.ru
cron
cron