COVID-19 - Последняя информация о коронавирусе на сайте Минздрава




Торрент файл
скачать торрент магнет ссылка Добавлен: 07 янв 2012, 17:47
Размер: 7.72 ГБ
Сидеров: 8
Личеров: 5
Автор

СообщениеДобавлено: 07 янв 2012, 17:47 

Не в сети
Супермодератор
Аватара пользователя
Дата регистрации:
11 апр 2010, 18:10
Спасибо: 6059 / 7
Сообщения: 56660
Город Зеро


Перевод: Не требуется
Субтитры:отсутствуют
Формат: DVD9, DVD Video, MPEG2, AC3
Страна: СССР
Режиссер: Карен Шахназаров
Жанр: Драма
Продолжительность: 01:37:03
Год выпуска: 1989

В ролях: Леонид Филатов,Олег Басилашвили, Владимир Меньшов, Армен Джигарханян,Евгений Евстигнеев, Алексей Жарков, Петр Щербаков, Юрий Шерстнев, Елена Аржаник, Татьяна Хвостикова

Описание: Отправившись в командировку, герой фильма неожиданно попадет в фантастический город. Он очень похож на наш мир, только скрытая абсурдность повседневной жизни здесь стала явной. Город Зеро открывает герою одну тайну за другой, и вернуться в привычную реальность становится все трудней…

Рейтинг на КиноПоиск:7.854[/field]
Рейтинг на IMDB:7.3/10[/field][/field]

Видео: 720x576, ( PAL 4:3), MPEG2 Video, 25,000 кадр/сек, ~ 5951 Кбит/сек
Аудио #1: Русский, 48,0 КГц, AC3, 6 канала(ов), ~448 Кбит/сек
Аудио #2: Русский, 48,0 КГц, AC3, 1 канал, ~448 Кбит/сек


Полное имя: I:\Фильмы DVD\Наши\ГОРОД ЗЕРО DVD-9\VIDEO_TS\VTS_01_1.VOB
Формат: MPEG-PS
Размер файла: 1024 Мбайт
Продолжительность: 14 м.
Общий поток: 9732 Кбит/сек
Видео
Идентификатор: 224 (0xE0)
Формат: MPEG Video
Версия формата: Version 2
Профиль формата: Main@Main
Параметр BVOP формата: Да
Параметр матрицы формата: По умолчанию
Параметры GOP формата: M=3, N=15
Продолжительность: 14 м.
Вид битрейта: Переменный
Битрейт: 8642 Кбит/сек
Номинальный битрейт: 5951 Кбит/сек
Ширина: 720 пикс.
Высота: 576 пикс.
Соотношение сторон: 4:3
Частота кадров: 25,000 кадр/сек
Стандарт вещания: PAL
Цветовое пространство: YUV
Подвыборка цветности: 4:2:0
Битовая глубина: 8 бит
Тип развёртки: Чересстрочная
Порядок развёртки: Верхнее поле первое
Метод сжатия: С потерями
Бит/(Пиксели*Кадры): 0.834
Размер потока: 909 Мбайт (89%)
Аудио #1
Идентификатор: 128 (0x80)
Формат: AC-3
Формат/Информация: Audio Coding 3
Расширение режима: CM (complete main)
Продолжительность: 14 м.
Вид битрейта: Постоянный
Битрейт: 448 Кбит/сек
Канал(ы): 6 канала(ов)
Расположение каналов: Front: L C R, Side: L R, LFE
Частота: 48,0 КГц
Битовая глубина: 16 бит
Метод сжатия: С потерями
Задержка видео: 2 с. 29 мс.
Размер потока: 47,0 Мбайт (5%)
Аудио #2
Идентификатор: 129 (0x81)
Формат: AC-3
Формат/Информация: Audio Coding 3
Расширение режима: CM (complete main)
Продолжительность: 14 м.
Вид битрейта: Постоянный
Битрейт: 448 Кбит/сек
Канал(ы): 1 канал
Расположение каналов: Front: C
Частота: 48,0 КГц
Битовая глубина: 16 бит
Метод сжатия: С потерями
Задержка видео: 2 с. 29 мс.
Размер потока: 47,0 Мбайт (5%)
Меню





























Поделиться:



Скачать книги и аудио книги через торрент


Вернуться к началу
 Профиль Отправить личное сообщение  
 
   Похожие торренты   Автор   Торрент   Размер 
В этой теме нет новых непрочитанных сообщений. Город Зеро [Комедия, драма, 1988] BDRip 720p

salma3

0 | 0

4.58 ГБ

В этой теме нет новых непрочитанных сообщений. Пациент Зеро / Patient Zero [ужасы, боевик, драма, 2018] WEBDLRip, Mvo [Baibako]

salma3

0 | 1

1.37 ГБ

В этой теме нет новых непрочитанных сообщений. Пациент Зеро / Patient Zero [Ужасы, боевик, драма, 2018] WEB-DL 1080p, Avo

salma3

0 | 0

3.21 ГБ

В этой теме нет новых непрочитанных сообщений. Пациент Зеро / Patient Zero [ужасы, боевик, драма, 2018] WEB-DL 1080p, Mvo

salma3

0 | 0

3.09 ГБ

В этой теме нет новых непрочитанных сообщений. Теорема Зеро / The Zero Theorem [фантастика, триллер, драма, комедия, 2013] HDRip, Avo [Гаврилов]

salma3

23 | 15

1.45 ГБ

В этой теме нет новых непрочитанных сообщений. Теорема Зеро / The Zero Theorem [фантастика, триллер, драма, комедия, 2013] BDRip 720p, Dub

salma3

24 | 14

6.69 ГБ

В этой теме нет новых непрочитанных сообщений. Вся наша надежда (Карен Геворкян) [2017, драма, WEB-DLRip]

salma3

100 | 47

1.37 ГБ


Начать новую тему Ответить на тему  [ 1 сообщение ] 




Для Мосгорсуда, Роскомнадзора и рекламодателей:: rstracker[собака]yandex.ru
cron