Торрент файл
скачать торрент магнет ссылка Добавлен: 07 янв 2012, 17:47
Размер: 6.81 ГБ
Сидеров: 3
Личеров: 7
Автор

СообщениеДобавлено: 07 янв 2012, 17:47 

Не в сети
Супермодератор
Аватара пользователя
Дата регистрации:
11 апр 2010, 18:10
Спасибо: 5801 / 7
Сообщения: 56779
Гусарская баллада [Ремастеринг]


Перевод: Не требуется
Субтитры: Отсутствуют
Формат: DVD9, DVD Video, MPEG2, AC3
Страна: СССР
Режиссер: Эльдар Рязанов
Жанр: комедия, музыкальный фильм
Продолжительность: 01:30:17
Год выпуска: 1962

В ролях: Лариса Голубкина, Юрий Яковлев, Николай Крючков, Виктор Кольцов (Кутаков), Игорь Ильинский, Антоний Ходурский, Татьяна Шмыга, Лев Поляков, Владимир Ширяев, Алексей Полевой, Юрий Белов, Валентин Брылеев, Феликс Яворский, Владимир Трошин, Роман Хомятов, Юрий Киреев, Михаил Орлов, Валерий Денисов (I)...

Описание: Лето 1812 года. В поместье отставного майора Азарова приезжает гусарский поручик Дмитрий Ржевский (Юрий Яковлев). Он заочно помолвлен с племянницей майора и не очень рад будущей встречи с жеманной модницей. Но Шурочка (Лариса Голубкина) - воспитанница двух старых вояк - отлично держится в седле, умеет фехтовать и стреляет без промаха......…..
По мотивам повести А.Гладкова "Давным-давно"


Рейтинг КиноПоиск.RU:7.819

Видео: 720x576 (PAL 4:3), MPEG 2 Video, 25,000 fps, ~5332 kbps avg
Аудио#1: Русский: 48 kHz, AC3, 6 ch, ~448 kbps avg
Аудио#2: Русский: 48 kHz, AC3, 1 ch, ~448 kbps avg

семпл

Реставрация "КП"

Дополнительно:
    Meню статичное, озвученное, на русском языке, с навигацией по эпизодам
    Фильмографии
    Воспоминания Эльдара Рязанова

    Занимает по посещаемости 40-е место среди отечественных фильмов за всю историю советского кинопроката.
    На роль Шурочки Азаровой пробовались Людмила Гурченко, Алиса Фрейндлих и другие известные актрисы.
  • Худсовет возражал против Игоря Ильинского в роли Кутузова, считая комедийного артиста негодным для роли полководца. Чтобы отстоять его кандидатуру, Рязанов пошел на хитрость. Сцену проезда Кутузова перед войсками, по сюжету происходившую зимой, снимали поздней весной. Буквально через пару дней весь снег растаял, и переснять сцену с другим актером было уже невозможно.

Формат: MPEG-PS
Размер файла: 1024 Мбайт
Продолжительность: 22 м.
Общий поток: 6354 Кбит/сек

Видео
Идентификатор: 224 (0xE0)
Формат: MPEG Video
Версия формата: Version 2
Профиль формата: Main@Main
Параметр BVOP формата: Да
Параметр матрицы формата: Выборочная
Продолжительность: 22 м.
Битрейт: 5332 Кбит/сек
Ширина: 720 пикселей
Высота: 576 пикселей
Соотношение сторон: 4:3
Частота кадров: 25,000 кадров/сек
Стандарт вещания: PAL
Цветовое пространство: YUV
Субдискретизация насыщенности: 4:2:0
Битовая глубина: 8 бит
Тип развёртки: Чересстрочная
Порядок развёртки: Верхнее поле первое
Метод сжатия: С потерями
Бит/(Пиксели*Кадры): 0.514
Размер потока: 859 Мбайт (84%)

Аудио #1
Идентификатор: 189 (0xBD)-128 (0x80)
Формат: AC-3
Формат/Информация: Audio Coding 3
Расширение режима: CM (complete main)
Режим смешивания: DVD-Video
Продолжительность: 22 м.
Вид битрейта: Постоянный
Битрейт: 448 Кбит/сек
Каналы: 6 каналов
Расположение каналов: Front: L C R, Side: L R, LFE
Частота: 48,0 КГц
Битовая глубина: 16 бит
Метод сжатия: С потерями
Задержка видео: -80 мс.
Размер потока: 72,2 Мбайт (7%)

Аудио #2
Идентификатор: 189 (0xBD)-129 (0x81)
Формат: AC-3
Формат/Информация: Audio Coding 3
Расширение режима: CM (complete main)
Режим смешивания: DVD-Video
Продолжительность: 22 м.
Вид битрейта: Постоянный
Битрейт: 448 Кбит/сек
Каналы: 1 канал
Расположение каналов: Front: C
Частота: 48,0 КГц
Битовая глубина: 16 бит
Метод сжатия: С потерями
Задержка видео: -80 мс.
Размер потока: 72,2 Мбайт (7%)

Меню





























Поделиться:




реклама партнёра


Вернуться к началу
 Профиль Отправить личное сообщение  
 
   Похожие торренты   Автор   Торрент   Размер 
В этой теме нет новых непрочитанных сообщений. Карнавал по-нашему [1-2 из 2] [Комедия, музыкальный фильм, 2013] HDTVRip

iopuk60

0 | 2

1.08 ГБ

В этой теме нет новых непрочитанных сообщений. Веселый Париж / Gay Purr-ee [мультфильм, мюзикл, комедия, семейный, 1962] WEB-DLRip, Mvo

salma3

46 | 7

1.37 ГБ

В этой теме нет новых непрочитанных сообщений. Три богатыря [Музыкальный, комедия, фантазия, 2013] SATRip

Ανδρέας

В этой теме нет новых непрочитанных сообщений. Тридцать три несчастья / The Notorious Landlady [комедия, криминал, детектив, 1962] DVDRip. Dub [Советский]

salma3

21 | 4

2.11 ГБ

В этой теме нет новых непрочитанных сообщений. Садъ - Баллада о гордом рыцаре [2011, Folk Rock, Punk Rock, MP3]

PriZraK

0 | 1

276.07 МБ

В этой теме нет новых непрочитанных сообщений. Мастер - С Петлей На Шее (Ремастеринг 2007) [1989, Trash Metal, MP3]

PriZraK

0 | 1

74.2 МБ

В этой теме нет новых непрочитанных сообщений. Красные горы [01-12 из 12] (Игорь Зайцев) [Боевик, военный фильм, исторический фильм, 2013] WEB-DL 720p

Dracon

337 | 124

10.83 ГБ


Начать новую тему Ответить на тему  [ 1 сообщение ] 




Для Мосгорсуда, Роскомнадзора и рекламодателей:: mosgorsud-torrent[собачка]yandex.ru