Торрент файл
скачать торрент магнет ссылка Добавлен: 07 янв 2012, 17:47
Размер: 5.79 ГБ
Сидеров: 3
Личеров: 5
Автор

СообщениеДобавлено: 07 янв 2012, 17:47 

Не в сети
Супермодератор
Аватара пользователя
Дата регистрации:
11 апр 2010, 18:10
Спасибо: 5995 / 7
Сообщения: 56685
Притчи 2


Перевод: Не требуется
Субтитры: Отсутствуют
Формат: DVD9, DVD Video, MPEG2, AC3
Страна: Россия
Режиссер: Виталий Любецкий
Жанр: Комедия, религия, семейный
Продолжительность: 01:01:29
Год выпуска: 2012

В ролях: Александр Ткаченок, Михаил Есьман, Елена Сидорова, Сергей Новицкий, Николай Рябычин, Наталья Волчек, Михаил Богушевич, Максим Паниматченко...

Описание: Эта лента — продолжение фильма «Притчи», выпущенного в 2011 году. И снова три рассказа, три повода с доброй улыбкой понаблюдать за старыми знакомыми и задуматься: в чем они правы, а в чем нет.
Герой первой истории «Лампадка» — послушник, тот самый, что на кладбище ходил покойников ругать. Снова он оплошал. «В чем кого осудишь — в том и сам побудешь», — говорит старец и в назидание дает ему новое послушание: пройти вокруг деревни с лампадкой в руках, не пролив ни капли масла и не затушив огня...
В новелле «Рубашка» — Мария, которая Спасителя в гости ждала, проходит через новые искушения. Трудно ей одной хозяйство дачное вести, а еще трудней по-христиански людей прощать. Но Мария не унывает — добром платит за зло, молится и ждет чуда. И оно происходит...
Жили на одном острове три старца-рыбака, — повествует третья история «Трое Вас — трое нас». Однажды проплывал мимо на корабле известный и почитаемый всеми архимандрит. Услыхав, что живут на острове святые чудотворцы, не поверил и решил сам все увидеть. А когда узнал, что рыбачки даже «Отче наш» не знают, стал их учить правильно молиться...


Рейтинг КиноПоиск.RU: отсутствует

Видео: 720x576 (PAL 4:3), MPEG 2 Video, 25,000 fps, ~8000 kbps avg
Аудио: Русский: 48 kHz, AC3, 2 ch, ~256 kbps avg

семпл

Дополнительно:
    Meню статичное, озвученное, на русском языке, с навигацией по эпизодам
    Смотрите на DVD
  • Информационная поддержка



Формат: MPEG-PS
Размер файла: 1024 Мбайт
Продолжительность: 17 м.
Общий поток: 8383 Кбит/сек

Видео
Идентификатор: 224 (0xE0)
Формат: MPEG Video
Версия формата: Version 2
Профиль формата: Main@Main
Параметр BVOP формата: Да
Параметр матрицы формата: По умолчанию
Параметр GOP формата: M=3, N=12
Продолжительность: 17 м.
Битрейт: 7961 Кбит/сек
Максимальный битрейт: 8000 Кбит/сек
Ширина: 720 пикселей
Высота: 576 пикселей
Соотношение сторон: 4:3
Частота кадров: 25,000 кадров/сек
Стандарт вещания: PAL
Цветовое пространство: YUV
Субдискретизация насыщенности: 4:2:0
Битовая глубина: 8 бит
Тип развёртки: Прогрессивная
Метод сжатия: С потерями
Бит/(Пиксели*Кадры): 0.768
Размер потока: 972 Мбайт (95%)

Аудио
Идентификатор: 189 (0xBD)-128 (0x80)
Формат: AC-3
Формат/Информация: Audio Coding 3
Расширение режима: CM (complete main)
Режим смешивания: DVD-Video
Продолжительность: 17 м.
Вид битрейта: Постоянный
Битрейт: 256 Кбит/сек
Каналы: 2 канала
Расположение каналов: Front: L R
Частота: 48,0 КГц
Битовая глубина: 16 бит
Метод сжатия: С потерями
Задержка видео: -80 мс.
Размер потока: 31,3 Мбайт (3%)

Меню




















Поделиться:



Вернуться к началу
 Профиль Отправить личное сообщение  
 
   Похожие торренты   Автор   Торрент   Размер 
В этой теме нет новых непрочитанных сообщений. В поисках Дори / Finding Dory (Мультфильм, комедия, приключения, семейный, 2016) DVD9 | Custom

marya111

29 | 18

6.39 ГБ

В этой теме нет новых непрочитанных сообщений. Божественное рождение 2 / Nativity 2: Danger in the Manger! [комедия, семейный, 2012] WEB-DL 1080p, Mvo

salma3

15 | 13

4.37 ГБ

В этой теме нет новых непрочитанных сообщений. Гравити Фолз / / Gravity Falls / 1 сезон, 1-20 серии из 20 [мультфильм, комедия, детектив, приключения, семейный, 2012] WEB-DLRip, Dub

salma3

340 | 111

5.65 ГБ

В этой теме нет новых непрочитанных сообщений. Альфа и Омега 5: Семейный отдых [Мультфильм, комедия, приключения, семейный, полнометражный, 2015] HDRip, Dub

Dracon

297 | 16

663.21 МБ

В этой теме нет новых непрочитанных сообщений. Evil Angel - Безумные Подростки Rocco 3 / Rocco's Psycho Teens 3 (2012) DVD9

salma3

6 | 6

7.56 ГБ

В этой теме нет новых непрочитанных сообщений. Том и Гек / Tom und Hacke [семейный, приключения, 2012] DVDRip, Avo

salma3

36 | 9

1.5 ГБ

В этой теме нет новых непрочитанных сообщений. Аромат моря / Sapore di mare [комедия, 1983] DVD9, Avo

salma3

0 | 0

6.46 ГБ


Начать новую тему Ответить на тему  [ 1 сообщение ] 




Для Мосгорсуда, Роскомнадзора и рекламодателей:: mosgorsud-torrent[собачка]yandex.ru
cron