Торрент файл
скачать торрент магнет ссылка Добавлен: 07 янв 2012, 17:46
Размер: 11.68 ГБ
Сидеров: 0
Личеров: 5
Автор

СообщениеДобавлено: 07 янв 2012, 17:46 

Не в сети
Супермодератор
Аватара пользователя
Дата регистрации:
11 апр 2010, 18:10
Спасибо: 5803 / 7
Сообщения: 56779
Андрей Рублев (2 серии из 2)

Перевод: Не требуется
Субтитры: Русские
Формат: DVD9, DVD Video, MPEG2, AC3
Страна: СССР
Режиссер: Андрей Тарковский
Жанр: Драма, военный, биография, история
Продолжительность: 01:33:31+01:21:13
Год выпуска: 1966

В ролях: Анатолий Солоницын Иван Лапиков Николай Гринько Николай Сергеев Ирина Тарковская Николай Бурляев Юрий Назаров Юрий Никулин Ролан Быков Николай Граббе

Описание: Русь начала XV века. Страну раздирают княжеские междоусобицы. Набеги татар, голод и мор преследуют народ… В эту трагическую эпоху появляется на Руси великий живописец, жизни и творчеству которого посвящен фильм. Сведения о нем скудны и отрывочны. Лишь немногие творения гениального мастера дошли до нас. Авторы фильма стремились воссоздать духовный мир Андрея Рублева.

Рейтинг на КиноПоиск:8.066[/field]
Рейтинг на IMDB:8.2/10[/field][/field]

Видео: 720x576, ( PAL 4:3), MPEG2 Video, 25,000 кадр/сек, ~ 4851 Кбит/сек
Аудио #1:Русский, 48,0 КГц, AC3, 6 канала(ов), ~448 Кбит/сек
Аудио #2:Русский, 48,0 КГц, AC3, 1 канал, ~128 Кбит/сек[/field]

Доп. информация:
Диск #1: Фильм7.76 Gb
Диск #2: Дополнительные материалы 3.92 Gb


Полное имя: F:\Фильмы DVD\Андрей Рублев DVD9\VIDEO_TS\VTS_02_1.VOB
Формат: MPEG-PS
Размер файла: 1024 Мбайт
Продолжительность: 26 м.
Общий поток: 5494 Кбит/сек
Видео
Идентификатор: 224 (0xE0)
Формат: MPEG Video
Версия формата: Version 2
Профиль формата: Main@Main
Параметр BVOP формата: Да
Параметр матрицы формата: По умолчанию
Параметры GOP формата: M=3, N=15
Продолжительность: 26 м.
Вид битрейта: Переменный
Битрейт: 4851 Кбит/сек
Ширина: 720 пикс.
Высота: 576 пикс.
Соотношение сторон: 4:3
Частота кадров: 25,000 кадр/сек
Стандарт вещания: PAL
Цветовое пространство: YUV
Подвыборка цветности: 4:2:0
Битовая глубина: 8 бит
Тип развёртки: Чересстрочная
Порядок развёртки: Верхнее поле первое
Метод сжатия: С потерями
Бит/(Пиксели*Кадры): 0.468
Размер потока: 896 Мбайт (88%)
Аудио #1
Идентификатор: 128 (0x80)
Формат: AC-3
Формат/Информация: Audio Coding 3
Расширение режима: CM (complete main)
Продолжительность: 26 м.
Вид битрейта: Постоянный
Битрейт: 448 Кбит/сек
Канал(ы): 6 канала(ов)
Расположение каналов: Front: L C R, Side: L R, LFE
Частота: 48,0 КГц
Битовая глубина: 16 бит
Метод сжатия: С потерями
Задержка видео: 188 мс.
Размер потока: 83,5 Мбайт (8%)
Аудио #2
Идентификатор: 129 (0x81)
Формат: AC-3
Формат/Информация: Audio Coding 3
Расширение режима: CM (complete main)
Продолжительность: 26 м.
Вид битрейта: Постоянный
Битрейт: 128 Кбит/сек
Канал(ы): 1 канал
Расположение каналов: Front: C
Частота: 48,0 КГц
Битовая глубина: 16 бит
Метод сжатия: С потерями
Задержка видео: 215 мс.
Размер потока: 23,8 Мбайт (2%)
Меню

* Фильм был полулегально показан в мае 1969 года на Каннском кинофестивале, а в советский прокат вышел только в декабре 1971 года.
* Первоначальное название фильма – «Страсти по Андрею».
* Режиссерская версия фильма длится 205 минут.
* Частушки скомороха в исполнении Ролана Быкова были написаны им самим. Когда актёр готовился к роли, он изучил вопрос, и оказалось, что подлинные частушки того времени сплошь содержат ненормативную лексику.
* Тарковский планировал включить в фильм новеллу о Куликовской битве с масштабными батальными сценами, но из-за проблем с бюджетом был вынужден отказаться от этого замысла.

Премия Леона Муссинака за лучший иностранный фильм во Франции в 1969 году; включен в 100 лучших фильмов мира по опросу киноведов в 1978 году; занял 8-е место по опросу членов Европейской академии кино и телевидения в 1995 году, вошел в 100 лучших фильмов мира по опросу ФИПРЕССИ в 1995 году.
Каннский кинофестиваль, 1969 год
Победитель (1):
* Приз международной ассоциации кинокритиков (ФИПРЕССИ)




































Поделиться:




реклама партнёра


Вернуться к началу
 Профиль Отправить личное сообщение  
 
   Похожие торренты   Автор   Торрент   Размер 
В этой теме нет новых непрочитанных сообщений. Жуков и Рокоссовский. Служили два товарища (Андрей Симонов) [Документальный, познавательный, биография, военный, 2015] SATRip

Dracon

7 | 2

485.34 МБ

В этой теме нет новых непрочитанных сообщений. Последняя миссия. Операция в Кабуле (Андрей Киянца) [Документальный, военный, история, политика, 2014] HDTVRip

Dracon

3 | 2

659.53 МБ

В этой теме нет новых непрочитанных сообщений. Великолепный век / Muhtesem Yuzyil / 4 сезон 1-21 серии из ??? [история, драма, мелодрама, военный, биография, 2013] WEB-DLRip, Avo

salma3

4 | 6

29.32 ГБ

В этой теме нет новых непрочитанных сообщений. Курсанты [01-10 из 10] (Андрей Кавун) [Драма, военный, 2004] HDTVRip

Dracon

66 | 18

5.37 ГБ

В этой теме нет новых непрочитанных сообщений. Курсанты [01-10 из 10] (Андрей Кавун) [Драма, военный, 2004] HDTV 1080i

Dracon

47 | 10

26.05 ГБ

В этой теме нет новых непрочитанных сообщений. Левиафан (Андрей Звягинцев) [Драма, 2014] DVD5

Dracon

5 | 3

4.31 ГБ

В этой теме нет новых непрочитанных сообщений. Афган. Фильм Андрея Кондрашова (Андрей Кондрашов) [2014, Андрей Кондрашов, WEBRip 720p]

Nickolas3435

79 | 9

1.1 ГБ


Начать новую тему Ответить на тему  [ 1 сообщение ] 




Для Мосгорсуда, Роскомнадзора и рекламодателей:: mosgorsud-torrent[собачка]yandex.ru